Битва за Севастополь / Незламна (2015) DVDRip

 
Автор Сообщение

достали все ®

Пол:

Стаж: 1 год 8 месяцев

Сообщений: 6627



Награды: 12 (Подробнее)

Mega Seeder 1 (Количество: 1) Mega Seeder 3 (Количество: 1) Mega Releaser 2 (Количество: 1)
Торрент-статистика

Создавать темы 26-Апр-2015 03:04

[Цитировать]

-Битва за Севастополь / Незламна (2015) DVDRip- Производство: Россия, Украина / Новые люди
Жанр: Военный, Боевик, Мелодрама, Драма
Режиссер: Сергей Мокрицкий
Продюсер: Егор Олесов, Наталья Мокрицкая, Ульяна Савельева
Актеры: Юлия Пересильд, Евгений Цыганов, Олег Васильков, Никита Тарасов, Джоан Блэкэм, Полина Пахомова, Владимир Лилицкий, Анатолий Кот, Нателла Абелева-Таганова, Валерий Гришко...
Описание:
Любовь под нескончаемым огнем противника, дружба с Элеонорой Рузвельт, выступление на конференции, повлиявшее на исход Второй мировой войны, желание жить и страх потерять любимого человека — справится ли со всем этим хрупкая женщина?
Это реальная история Людмилы Павличенко — легендарной женщины-снайпера. Солдаты шли в бой с ее именем на устах, а враги устроили на нее охоту. На поле битвы она видела смерть и страдания, но самым серьезным испытанием для нее стала любовь, которую у нее могла забрать война…

Дата мировой премьеры: 2 апреля 2015
Дата премьеры в РФ: 2 апреля 2015, «Двадцатый Век Фокс СНГ»
Дата выхода DVD/Blu-ray релиза: 12 мая 2015, «Lizard Cinema Trade»
Продолжительность: 01:57:55
Качество видео: DVDRip
Перевод: Не требуется (русский) лицензия
Субтитры: Отсутствуют
Видеокодек: Xvid, ~1317 kb/s, 720x304
Аудио: AC3 5.1, 448 kb/s
Сэмпл: Скачать

Mediainfo:

Общее
Полное имя                               : Sevastopol.2015.O.DVDRip.1400MB.nnm-club.avi
Формат                                   : AVI
Формат/Информация                        : Audio Video Interleave
Размер файла                             : 1,46 Гбайт
Продолжительность                        : 1 ч. 57 м.
Общий поток                              : 1774 Кбит/сек
Программа кодирования                    : VirtualDubMod 1.5.10.2 (build 2540/release)
Библиотека кодирования                   : VirtualDubMod build 2540/release
Видео
Идентификатор                            : 0
Формат                                   : MPEG-4 Visual
Профиль формата                          : Advanced Simple@L5
Параметр BVOP формата                    : 2
Параметр QPel формата                    : Нет
Параметр GMC формата                     : Без точки перехода
Параметр матрицы формата                 : Default (MPEG)
Идентификатор кодека                     : XVID
Идентификатор кодека/Подсказка           : XviD
Продолжительность                        : 1 ч. 57 м.
Битрейт                                  : 1317 Кбит/сек
Ширина                                   : 720 пикселей
Высота                                   : 304 пикселя
Соотношение сторон                       : 2,35:1
Частота кадров                           : 25,000 кадров/сек
Цветовое пространство                    : YUV
Субдискретизация насыщенности            : 4:2:0
Битовая глубина                          : 8 бит
Тип развёртки                            : Прогрессивная
Метод сжатия                             : С потерями
Бит/(Пиксели*Кадры)                      : 0.241
Размер потока                            : 1,08 Гбайт (74%)
Библиотека кодирования                   : XviD 1.2.1 (UTC 2008-12-04)
Аудио
Идентификатор                            : 1
Формат                                   : AC-3
Формат/Информация                        : Audio Coding 3
Расширение режима                        : CM (complete main)
Параметр Endianness формата              : Big
Идентификатор кодека                     : 2000
Продолжительность                        : 1 ч. 57 м.
Вид битрейта                             : Постоянный
Битрейт                                  : 448 Кбит/сек
Каналы                                   : 6 каналов
Расположение каналов                     : Front: L C R, Side: L R, LFE
Частота                                  : 48,0 КГц
Битовая глубина                          : 16 бит
Метод сжатия                             : С потерями
Размер потока                            : 378 Мбайт (25%)
Выравнивание                             : Разделение по промежуткам
Продолжительность промежутка             : 40  мс. (1,00 видеокадр)
Время предзагрузки промежутка            : 500  мс.
Скриншоты:


Последний раз редактировалось: достали все (2015-04-27 03:50), всего редактировалось 1 раз
[Профиль] [ЛС]
Кто просматривает тему:

Форум Тема Автор Размер
Discovery Discovery. Османы и христиане: Битва за Европу / Ottomans Versus Christians: Battle for Europe [серия 1 из 3] [2012г., Документальный, история, исследование, HDTVRip 720p] Zithylord 1.29 GB
Бокс, Бои без правил, К1 M-1 Challenge 50 Битва на Неве [15.08.2014, MMA, PDTV] sergej644 3.37 GB
Action FPS (1st Person) Painkiller Black Edition / Painkiller: Крещенный кровью + Painkiller: Битва за Пределами Ада [L|GOG] [ENG] (2004) (v.1.64) TorrentFilm 3.67 GB
Action Transformers: Rise of the Dark Spark / Трансформеры: Битва за Тёмную Искру [L] [RUS / MULTI6] (2014) bot 10.01 GB
Action Transformers: Rise of the Dark Spark / Трансформеры: Битва за Тёмную Искру [L|Steam-Rip] [RUS/ENG] (2014) TorrentFilm 8.67 GB
Action Transformers: Rise of the Dark Spark / Трансформеры: Битва за Тёмную Искру [RePack] [RUS|Multi6/ENG] (2014) TorrentFilm 5.35 GB
Action World War II Combat: Iwo Jima / Вторая Мировая: Битва за Иводзиму [RUS] TorrentFilm 781 MB
Фильмы 2014 года Адмирал: Битва за Мён Рян / Myeong-ryang / The Admiral: Roaring Currents (Ким Хан Мин) [2014, приключения, военный, биография] HDRip | L1 BOSS 1.37 GB
Показать сообщения:    

Текущее время: Сегодня 10:17

Часовой пояс: GMT



Вы не можете начинать темы
Вы не можете отвечать на сообщения
Вы не можете редактировать свои сообщения
Вы не можете удалять свои сообщения
Вы не можете голосовать в опросах
Вы не можете прикреплять файлы к сообщениям
Вы не можете скачивать файлы