Битва за Севастополь / Незламна (2015) DVD9

 
Автор Сообщение

достали все ®

Пол:

Стаж: 1 год 8 месяцев

Сообщений: 6600



Награды: 12 (Подробнее)

За внесенный вклад в развитие сайта (Количество: 1) Mega Seeder 1 (Количество: 1) Top Releaser 4 (Количество: 1)
Торрент-статистика

Создавать темы 25-Апр-2015 16:55

[Цитировать]

-Битва за Севастополь / Незламна (2015) DVD9- Производство: Россия, Украина
Жанр: Военный, Боевик, Мелодрама, Драма
Режиссер: Сергей Мокрицкий
Продюсер: Егор Олесов, Наталья Мокрицкая, Ульяна Савельева
Актеры: Юлия Пересильд, Евгений Цыганов, Олег Васильков, Никита Тарасов, Джоан Блэкэм, Полина Пахомова, Владимир Лилицкий, Анатолий Кот, Нателла Абелева-Таганова, Валерий Гришко...
Описание:
Любовь под нескончаемым огнем противника, дружба с Элеонорой Рузвельт, выступление на конференции, повлиявшее на исход Второй мировой войны, желание жить и страх потерять любимого человека — справится ли со всем этим хрупкая женщина?
Это реальная история Людмилы Павличенко — легендарной женщины-снайпера. Солдаты шли в бой с ее именем на устах, а враги устроили на нее охоту. На поле битвы она видела смерть и страдания, но самым серьезным испытанием для нее стала любовь, которую у нее могла забрать война…

Дата мировой премьеры: 2 апреля 2015
Дата премьеры в РФ: 2 апреля 2015, «Двадцатый Век Фокс СНГ»
Дата выхода DVD/Blu-ray релиза: 12 мая 2015, «Lizard Cinema Trade»
Релиз от: R.G. LIZARD
Продолжительность: 02:00:00
Качество видео: DVD9
Перевод: Отсутствует
Субтитры: Отсутствуют
Видео: MPEG-2, ~8500 kbps, 720x576@1024x576
Аудио #1: AC3 6 ch, 448 kbps (Русский)
Аудио #2: DTS, 6 ch, 755 kbps (Русский)
Сэмпл: Скачать

Mediainfo:

General
Complete name               :sevast\VTS_02_1.VOB
Format                      : MPEG-PS
File size                   : 1 024 MiB
Duration                    : 18mn 12s
Overall bit rate mode       : Variable
Overall bit rate            : 7 863 Kbps
Video
ID                          : 224 (0xE0)
Format                      : MPEG Video
Format version              : Version 2
Format profile              : Main@Main
Format settings, BVOP       : Yes
Format settings, Matrix     : Custom
Format settings, GOP        : Variable
Duration                    : 18mn 12s
Bit rate mode               : Variable
Bit rate                    : 6 504 Kbps
Maximum bit rate            : 8 500 Kbps
Width                       : 720 pixels
Height                      : 576 pixels
Display aspect ratio        : 16:9
Frame rate                  : 25.000 fps
Standard                    : PAL
Color space                 : YUV
Chroma subsampling          : 4:2:0
Bit depth                   : 8 bits
Scan type                   : Progressive
Compression mode            : Lossy
Bits/(Pixel*Frame)          : 0.627
Time code of first frame    : 00:00:00:00
Time code source            : Group of pictures header
Stream size                 : 847 MiB (83%)
Audio #1
ID                          : 189 (0xBD)-128 (0x80)
Format                      : AC-3
Format/Info                 : Audio Coding 3
Mode extension              : CM (complete main)
Format settings, Endianness : Big
Muxing mode                 : DVD-Video
Duration                    : 18mn 12s
Bit rate mode               : Constant
Bit rate                    : 448 Kbps
Channel(s)                  : 6 channels
Channel positions           : Front: L C R, Side: L R, LFE
Sampling rate               : 48.0 KHz
Bit depth                   : 16 bits
Compression mode            : Lossy
Stream size                 : 58.3 MiB (6%)
Audio #2
ID                          : 189 (0xBD)-137 (0x89)
Format                      : DTS
Format/Info                 : Digital Theater Systems
Mode                        : 16
Format settings, Endianness : Big
Muxing mode                 : DVD-Video
Duration                    : 18mn 12s
Bit rate mode               : Constant
Bit rate                    : 755 Kbps
Channel(s)                  : 6 channels
Channel positions           : Front: L C R, Side: L R, LFE
Sampling rate               : 48.0 KHz
Bit depth                   : 24 bits
Compression mode            : Lossy
Stream size                 : 98.2 MiB (10%)
Menu
Скриншоты:
[Профиль] [ЛС]

Создавать темы 06-Авг-2015 23:38 (спустя 3 месяца 11 дней)

Топик был перенесен из форума Фильмы (HD DVD, Blu-ray и BDRemux) в форум Фильмы (DVD 5/9)
sergej644
 
Кто просматривает тему:

Форум Тема Автор Размер
Discovery Discovery. Османы и христиане: Битва за Европу / Ottomans Versus Christians: Battle for Europe [серия 1 из 3] [2012г., Документальный, история, исследование, HDTVRip 720p] Zithylord 1.29 GB
Бокс, Бои без правил, К1 M-1 Challenge 50 Битва на Неве [15.08.2014, MMA, PDTV] sergej644 3.37 GB
Action FPS (1st Person) Painkiller Black Edition / Painkiller: Крещенный кровью + Painkiller: Битва за Пределами Ада [L|GOG] [ENG] (2004) (v.1.64) TorrentFilm 3.67 GB
Action Transformers: Rise of the Dark Spark / Трансформеры: Битва за Тёмную Искру [L] [RUS / MULTI6] (2014) bot 10.01 GB
Action Transformers: Rise of the Dark Spark / Трансформеры: Битва за Тёмную Искру [L|Steam-Rip] [RUS/ENG] (2014) TorrentFilm 8.67 GB
Action Transformers: Rise of the Dark Spark / Трансформеры: Битва за Тёмную Искру [RePack] [RUS|Multi6/ENG] (2014) TorrentFilm 5.35 GB
Action World War II Combat: Iwo Jima / Вторая Мировая: Битва за Иводзиму [RUS] TorrentFilm 781 MB
Фильмы 2014 года Адмирал: Битва за Мён Рян / Myeong-ryang / The Admiral: Roaring Currents (Ким Хан Мин) [2014, приключения, военный, биография] HDRip | L1 BOSS 1.37 GB
Показать сообщения:    

Текущее время: Сегодня 07:11

Часовой пояс: GMT



Вы не можете начинать темы
Вы не можете отвечать на сообщения
Вы не можете редактировать свои сообщения
Вы не можете удалять свои сообщения
Вы не можете голосовать в опросах
Вы не можете прикреплять файлы к сообщениям
Вы не можете скачивать файлы