Бирюзовая роза / Turquoise Rose (Трэвис Холт Хэмилтон / Travis Holt Hamilton) [2007, США, Драма, DVDRip] AVO (Карповский)

 
Автор Сообщение

TorrentFilm ®

Пол:

Стаж: 2 года

Сообщений: 7741



Награды: Нет

Торрент-статистика

Создавать темы 04-Июл-2015 00:07

[Цитировать]

Бирюзовая роза / Turquoise Rose
Страна: США
Жанр: Драма
Год выпуска: 2007
Продолжительность: 01:33:31
Перевод: Авторский (одноголосый закадровый) Антон Карповский
Cубтитры: нет
Режиссер: Трэвис Холт Хэмилтон / Travis Holt Hamilton
В ролях: Дешава Апачи, Донован Барни, Етел Бегай
Описание: История повествует о девушке из племени Навахо в Аризоне по имени Бирюзовая роза. Проживающая в пригороде Феникса она посещает колледж и стажируется в качестве местного фотокорреспондента в местной газете. В ее планах поехать в путешествие в Европу. Но планы неожиданно обрываются когда живущая в резервации бабушка заболевает.
Доп. информация: Исходник DVD-5 (СПАСИБО! tong777)
Сэмпл: http://multi-up.com/1056689
Качество видео: DVDRip
Формат видео: AVI
Видео: XviD build 50, 704x384 (1.83:1), 23.976 fps, 1889 kbps avg
Аудио: AC3 Dolby Digital, 48 kHz, 2/0 (L,R) ch, 192 kbps

MediaInfo

General
Complete name : F:\Birjuzovaja.roza.2007.XviD.DVDRip-Dego.avi
Format : AVI
Format/Info : Audio Video Interleave
File size : 1.37 GiB
Duration : 1h 33mn
Overall bit rate : 2 091 Kbps
Writing application : VirtualDubMod 1.5.10.2 (build 2540/release)
Writing library : VirtualDubMod build 2540/release
Video
ID : 0
Format : MPEG-4 Visual
Format profile : AdvancedSimple@L5
Format settings, BVOP : Yes
Format settings, QPel : No
Format settings, GMC : No warppoints
Format settings, Matrix : Custom
Codec ID : XVID
Codec ID/Hint : XviD
Duration : 1h 33mn
Bit rate : 1 889 Kbps
Width : 704 pixels
Height : 384 pixels
Display aspect ratio : 16/9
Frame rate : 23.976 fps
Resolution : 24 bits
Colorimetry : 4:2:0
Scan type : Progressive
Bits/(Pixel*Frame) : 0.291
Stream size : 1.23 GiB (90%)
Writing library : XviD 1.2.1 (UTC 2008-12-04)
Audio
ID : 1
Format : AC-3
Format/Info : Audio Coding 3
Codec ID : 2000
Duration : 1h 33mn
Bit rate mode : Constant
Bit rate : 192 Kbps
Channel(s) : 2 channels
Channel positions : L R
Sampling rate : 48.0 KHz
Stream size : 128 MiB (9%)
Alignment : Split accross interleaves
Interleave, duration : 42 ms (1.00 video frame)
Interleave, preload duration : 500 ms

Скриншоты

[Профиль] [ЛС]

Создавать темы 06-Авг-2015 22:25 (спустя 1 месяц 2 дня)

Топик был перенесен из форума Фильмы до 2014 года в форум Фильмы до 2012 года
sergej644
 
Кто просматривает тему:

Показать сообщения:    

Текущее время: Сегодня 18:42

Часовой пояс: GMT



Вы не можете начинать темы
Вы не можете отвечать на сообщения
Вы не можете редактировать свои сообщения
Вы не можете удалять свои сообщения
Вы не можете голосовать в опросах
Вы не можете прикреплять файлы к сообщениям
Вы не можете скачивать файлы