Биркебейнеры / Birkebeinerne (Нильс Гёуп ) [2016, боевик, драма, приключения, BDRip 1080p, MVO]

 
Автор Сообщение

MeMoRiSe ®

Пол:

Стаж: 3 месяца 12 дней

Сообщений: 3



Награды: Нет

Торрент-статистика

Создавать темы 27-Авг-2016 21:23

[Цитировать]

Биркебейнеры / Birkebeinerne
Год выпуска: 2016
Страна: Норвегия
Жанр: боевик, драма, приключения
Продолжительность: 01:39:25
Перевод: Многоголосый закадровый
Режиссер: Нильс Гёуп
В ролях: Michael Aasen (Birkebeiner #9), Anders Dahlberg (Aslak), Jonathan Oskar Dahlgren (Baby Håkon Håkonson), Асмунд Бреде Эйке (Ståle), Elg Elgesem (Frikk), Пол Сверре Валхейм Хаген (Gisle), Торбьорн Харр (Inge), Беньямин Хельстад (King), Кристофер Хивью (Torstein), Стиг Хенрик Хофф (Erlend), Еппе Леурсен (Audun), Николай Ли Каас (Orm)
Описание: 1204 год, Норвегию раздирает гражданская война. Незаконнорожденного сына короля Хокона III Сверрессона и Инги из Вартейга хранят в глубокой тайне. Мальчик был внебрачным сыном короля и родился после его смерти, что спровоцировало кровавую междоусобицу. Биркебейнеры (ополчение, созданное его дедом, королем Сверре Сигурдсоном) признали мальчика наследником трона Норвегии. Однако католические священники объявили охоту на ребенка с целью его уничтожения.- -Качество: BDRip 1080p
Формат: MKV
Видео кодек: AVC
Аудио кодек: AC3
Видео: AVC, 1920x816 (2.35:1), 12000 kbps, 24 fps, 0,319 bpp
Аудио 1: русский / AC3 / 5.1 / 48 kHz / 640 kbps /
Аудио 2: норвежский / AC3 / 5.1 / 48 kHz / 640 kbps /
Навигация по главам: есть

MI

General
Unique ID Birkebeinerne.2016.BDRip.1080p.mkv
Формат : Matroska
Формат version : Version 2
Размер файла : 9.20 GiB
Длительность : 1 h 39 min
Общий Битрейт : 13.3 Mb/s
Movie name : Birkebeinerne (2016). BDRip 1080p
Encoded date : UTC 2016-06-24 06:56:37
Создано приложением : mkvmerge v8.5.2 ('Crosses') 32bit
Writing library : libebml v1.3.3 + libmatroska v1.4.4
Video
ID : 1
Формат : AVC
Формат/Info : Advanced Video Кодек
Формат profile : High@L4.1
Формат настройки, CABAC : Yes
Формат настройки, ReFrames : 5 frames
Кодек ID : V_MPEG4/ISO/AVC
Длительность : 1 h 39 min
Битрейт : 12.0 Mb/s
Width : 1 920 пикселей
Высота : 816 пикселей
Соотношение кадра : 2.35:1
Original Соотношение кадра : 16:9
Частота кадров mode : Constant
Частота кадров : 24.000 FPS
Цветопередача : YUV
Chroma subsampling : 4:2:0
Разрядность : 8 bits
Тип сканирования : Progressive
Bits/(Pixel*Frame) : 0.319
Размер потока : 8.31 GiB (90%)
Writing library : x264 core 148 r2638 7599210
Encoding настройки : cabac=1 / ref=5 / deblock=1:-1:-1 / analyse=0x3:0x133 / me=umh / subme=11 / psy=1 / psy_rd=1.05:0.00 / mixed_ref=1 / me_range=32 / chroma_me=1 / trellis=2 / 8x8dct=1 / cqm=0 / deadzone=21,11 / fast_pskip=0 / chroma_qp_offset=-2 / threads=12 / lookahead_threads=3 / sliced_threads=0 / nr=0 / decimate=0 / interlaced=0 / bluray_compat=0 / constrained_intra=0 / bframes=16 / b_pyramid=2 / b_adapt=2 / b_bias=0 / direct=3 / weightb=1 / open_gop=0 / weightp=2 / keyint=240 / keyint_min=23 / scenecut=40 / intra_refresh=0 / rc_lookahead=60 / rc=2pass / mbtree=0 / bitrate=12000 / ratetol=1.0 / qcomp=0.70 / qpmin=10 / qpmax=51 / qpstep=4 / cplxblur=20.0 / qblur=0.5 / vbv_maxrate=62500 / vbv_bufsize=78125 / nal_hrd=none / filler=0 / ip_ratio=1.40 / pb_ratio=1.20 / aq=3:0.85
Default : Yes
Forced : No
Audio #1
ID : 2
Формат : AC-3
Формат/Info : Audio Coding 3
Расширение режима : CM (complete main)
Формат настройки, Endianness : Big
Кодек ID : A_AC3
Длительность : 1 h 39 min
Битрейт mode : Constant
Битрейт : 640 kb/s
Channel(s) : 6 каналов
Channel positions : Front: L C R, Side: L R, LFE
Частота : 48.0 kHz
Частота кадров : 31.250 FPS (1536 spf)
Режим сжатия : Lossy
Размер потока : 455 MiB (5%)
Язык : Russian
Default : Yes
Forced : No
Audio #2
ID : 3
Формат : AC-3
Формат/Info : Audio Coding 3
Расширение режима : CM (complete main)
Формат настройки, Endianness : Big
Кодек ID : A_AC3
Длительность : 1 h 39 min
Битрейт mode : Constant
Битрейт : 640 kb/s
Channel(s) : 6 каналов
Channel positions : Front: L C R, Side: L R, LFE
Частота : 48.0 kHz
Частота кадров : 31.250 FPS (1536 spf)
Режим сжатия : Lossy
Размер потока : 455 MiB (5%)
Язык : Norwegian
Default : No
Forced : No
Menu
00:00:00.000 : en:00:00:00.000
00:09:59.790 : en:00:09:59.790
00:19:59.750 : en:00:19:59.750
00:29:59.665 : en:00:29:59.665
00:39:59.750 : en:00:39:59.750
00:49:59.833 : en:00:49:59.833
00:59:59.708 : en:00:59:59.708
01:09:59.707 : en:01:09:59.707
01:19:59.916 : en:01:19:59.916
01:29:59.791 : en:01:29:59.791]

Скриншоты

[Профиль] [ЛС]
Показать сообщения:    

Текущее время: Сегодня 02:15

Часовой пояс: GMT



Вы не можете начинать темы
Вы не можете отвечать на сообщения
Вы не можете редактировать свои сообщения
Вы не можете удалять свои сообщения
Вы не можете голосовать в опросах
Вы не можете прикреплять файлы к сообщениям
Вы не можете скачивать файлы