Бильярдная братия / Rack Pack (2016) WEBRip | L1

 
Автор Сообщение

достали все ®

Пол:

Стаж: 1 год 8 месяцев

Сообщений: 6627



Награды: 12 (Подробнее)

Top Releaser 3 (Количество: 1) Mega Seeder 3 (Количество: 1) Mega Releaser 1 (Количество: 1)
Торрент-статистика

Создавать темы 06-Фев-2016 05:33

[Цитировать]

Бильярдная братия / Rack Pack (2016) WEBRip- Производство: США, Великобритания, BBC
Жанр: Драма
Режиссер: Брайан Уэлш
Актеры: Люк Тридэуэй, Уилл Меррик, Кевин Бишоп, Никола Берли, Джеймс Бэйли
Описание:
Это художественный драматический биографический фильм о снукере в период его расцвета в 70-80-е годы, в центре сюжета – конкуренция между горячим смутьяном Алексом "Ураганом" Хиггинсом и его невозмутимым в своем спокойствии "ледяным" противником Стивом Дэвисом. В фильме, снятом в жанре трагикомедии, рассказывается и про то, как с помощью Дэвиса умелый предприниматель Барри Хирн поднял снукер на невиданные высоты буквально за несколько лет.
Дата мировой премьеры: 17.01.2016
Релиз от: K.E.N
Продолжительность: 01:27:20
Качество видео: WEBRip
Перевод: Одноголосый закадровый, любительский (sprvision)
Субтитры: Отсутствуют
Видео: 720x304 (2.37:1), 25 fps, XviD build 73 ~1051 kbps, 0.19 bit/pixel
Аудио: 48 kHz, MPEG Layer 3, 2 ch, ~128.00 kbps
Семпл: Скачать

Mediainfo:

Формат : AVI
Формат/Информация : Audio Video Interleave
Размер файла : 743 Мбайт
Продолжительность : 1 ч. 27 м.
Общий поток : 1190 Кбит/сек
Программа кодирования : VirtualDubMod 1.5.10.3 | www.virtualdub-fr.org || (build 2550/release)
Библиотека кодирования : VirtualDubMod build 2550/release
Видео
Идентификатор : 0
Формат : MPEG-4 Visual
Профиль формата : Advanced Simple@L5
Параметр BVOP формата : 1
Параметр QPel формата : Нет
Параметр GMC формата : Без точки перехода
Параметр матрицы формата : Выборочная
Идентификатор кодека : XVID
Идентификатор кодека/Подсказка : XviD
Продолжительность : 1 ч. 27 м.
Битрейт : 1052 Кбит/сек
Ширина : 720 пикселей
Высота : 304 пикселя
Соотношение сторон : 2,35:1
Частота кадров : 25,000 кадров/сек
Цветовое пространство : YUV
Субдискретизация насыщенности : 4:2:0
Битовая глубина : 8 бит
Тип развёртки : Прогрессивная
Метод сжатия : С потерями
Бит/(Пиксели*Кадры) : 0.192
Размер потока : 657 Мбайт (88%)
Библиотека кодирования : XviD 73
Аудио
Идентификатор : 1
Формат : MPEG Audio
Версия формата : Version 1
Профиль формата : Layer 3
Идентификатор кодека : 55
Идентификатор кодека/Подсказка : MP3
Продолжительность : 1 ч. 27 м.
Вид битрейта : Постоянный
Битрейт : 128 Кбит/сек
Каналы : 2 канала
Частота : 48,0 КГц
Метод сжатия : С потерями
Размер потока : 80,0 Мбайт (11%)
Выравнивание : Соединение по промежуткам
Продолжительность промежутка : 40 мс. (1,00 видеокадр)
Время предзагрузки промежутка : 504 мс.
Библиотека кодирования : LAME3.99r
Настройки программы : -m s -V 4 -q 2 -lowpass 17 -b 128
Скриншоты:
[Профиль] [ЛС]
Показать сообщения:    

Текущее время: Сегодня 10:17

Часовой пояс: GMT



Вы не можете начинать темы
Вы не можете отвечать на сообщения
Вы не можете редактировать свои сообщения
Вы не можете удалять свои сообщения
Вы не можете голосовать в опросах
Вы не можете прикреплять файлы к сообщениям
Вы не можете скачивать файлы