Билет в космос / Un ticket pour l\'espace (Эрик Лартиго / Eric Lartigau) [2006, Франция, комедия, фантастика, детектив, DVDRip] MVO

 
Автор Сообщение

TorrentFilm ®

Пол:

Стаж: 1 год 11 месяцев

Сообщений: 7741



Награды: Нет

Торрент-статистика

Создавать темы 20-Дек-2014 02:00

[Цитировать]

Билет в космос / Un ticket pour l'espace
Страна: Франция
Жанр: комедия, фантастика, детектив
Год выпуска: 2006
Продолжительность: 01:28:41
Перевод: Профессиональный (многоголосый закадровый)
Cубтитры: нет
Режиссер: Эрик Лартиго / Eric Lartigau
В ролях: Кад Мерад, Оливье Бару, Марина Фоис, Гийом Кане, Андре Дюссолье, Пьер-Франсуа Мартен-Лаваль, Фридерик Пруст, Тьерри Фремон, Венсан Москато, Фредерик Бел, Матье Биссон, Александр Комартен, Франсуа Клавье, Эммануэль Коссо, Жюдит Эль Зэн, Мартен Жобер, Жан-Пьер Лаззерини, Фридерик Маранбер, Анн Маривен, Флоранс Мюллер, Эрик Наггар, Изабель Пети-Жак, Люк Сонзоньи
Описание: Французский народ не может понять, почему так много денег вложено в космические исследования. Поэтому правительство запускает гигантскую рекламную кампанию. Игра-лотерея «Билет в космос» проводится в партнерстве с Французским космическим центром. Двоим победителям позволят съездить на европейскую орбитальную космическую станцию в сопровождении профессионального экипажа. Кампания идет с огромным успехом. Две счастливчиков отправляются в космос, но не всем нравятся гражданские в космосе...
Доп. информация: Рип с http://torrentfilm.net/forum/viewtopic.php?t=4870825, спасибо pyatakov67 за исходник
Сэмпл: http://sendfile.su/1050888
Качество видео: DVDRip
Формат видео: AVI
Видео: XviD, 720x304 (2.37:1), 25 fps, 2147 kbps avg
Аудио: AC3 Dolby Digital, 48 kHz, 192 kbps, 2/0 (L,R) ch

MediaInfo

Общее
Полное имя : Bilet_v_Kosmos.2006.XviD.DVDRip.RusMVO.avi
Формат : AVI
Формат/Информация : Audio Video Interleave
Размер файла : 1,46 Гбайт
Продолжительность : 1 ч. 28 м.
Общий поток : 2349 Кбит/сек
Название фильма : Un ticket pour l'espace / Eric Lartigau / 2006
Режиссёр : rip by MetionInka
Жанр : Comedy
Программа кодирования : VirtualDubMod 1.5.10.3 | www.virtualdub-fr.org || (build 2550/release)
Правообладатель : torrentfilm.net
Примечание : RusMVO
Видео
Идентификатор : 0
Формат : MPEG-4 Visual
Профиль формата : Advanced Simple@L5
Параметр BVOP формата : 2
Параметр QPel формата : Нет
Параметр GMC формата : Без точки перехода
Параметр матрицы формата : Выборочная
Идентификатор кодека : XVID
Идентификатор кодека/Подсказка : XviD
Продолжительность : 1 ч. 28 м.
Битрейт : 2147 Кбит/сек
Ширина : 720 пикселей
Высота : 304 пикселя
Соотношение сторон : 2,35:1
Частота кадров : 25,000 кадров/сек
Цветовое пространство : YUV
Субдискретизация насыщенности : 4:2:0
Битовая глубина : 8 бит
Тип развёртки : Прогрессивная
Метод сжатия : С потерями
Бит/(Пиксели*Кадры) : 0.392
Размер потока : 1,33 Гбайт (91%)
Библиотека кодирования : XviD 73
Аудио
Идентификатор : 1
Формат : AC-3
Формат/Информация : Audio Coding 3
Расширение режима : CM (complete main)
Параметр Endianness формата : Big
Идентификатор кодека : 2000
Продолжительность : 1 ч. 28 м.
Вид битрейта : Постоянный
Битрейт : 192 Кбит/сек
Каналы : 2 канала
Расположение каналов : Front: L R
Частота : 48,0 КГц
Битовая глубина : 16 бит
Метод сжатия : С потерями
Размер потока : 122 Мбайт (8%)
Выравнивание : Разделение по промежуткам
Продолжительность промежутка : 40 мс. (1,00 видеокадр)
Время предзагрузки промежутка : 500 мс.

Скриншот c названием фильма

Скриншоты

[Профиль] [ЛС]

Создавать темы 06-Авг-2015 22:54 (спустя 7 месяцев 17 дней)

Топик был перенесен из форума Фильмы до 2014 года в форум Фильмы до 2012 года
sergej644
 
Показать сообщения:    

Текущее время: Сегодня 14:03

Часовой пояс: GMT



Вы не можете начинать темы
Вы не можете отвечать на сообщения
Вы не можете редактировать свои сообщения
Вы не можете удалять свои сообщения
Вы не можете голосовать в опросах
Вы не можете прикреплять файлы к сообщениям
Вы не можете скачивать файлы