Бизнес ради любви / Beauty & the Briefcase (Джил Джангер) [2010 г., мелодрама, комедия, BDRip 720p]

 
Автор Сообщение

AleksSin ®

Пол:

Стаж: 6 лет

Сообщений: 218



Награды: 4 (Подробнее)

Mega Seeder 3 (Количество: 1) Mega Seeder 1 (Количество: 1) Mega Seeder 4 (Количество: 1)
Торрент-статистика

Создавать темы 17-Авг-2015 15:16

[Цитировать]

Бизнес ради любви / Beauty & the Briefcase
Год выпуска: 2010
Страна: США
Жанр: мелодрама, комедия
Продолжительность: 01:22:59
Перевод: Профессиональный (двухголосый)
Режиссер: Джил Джангер
В ролях: Хилари Дафф, Крис Кармак, Майкл МакМиллиан, Аманда Уолш, Кевин Киркпатрик, Дженнифер Кулидж, Мэтт Даллас, Джеймс МакДэниэл, Джейми Прессли, Брэнди Коулмэн
Описание: Лэйн — молодая нью-йоркская журналистка, мечтающая о любви и карьере в Космо. По протекции лучшей подруги Джоан девушка попадает в модный журнал на стажировку. Во что бы то ни стало ее статья должна быть лучшей, но… в её жизни совершенно неожиданно появляется Он — «волшебный мужчина», отвечающий всем требованиям из списка идеального. Что же сильнее — желание быть любимой или карьера?

Качество: BDRip 720p (Исх. BDRemux 1080i)
Формат: MKV
Видео кодек: H.264
Аудио кодек: AC3
Видео: MPEG-4 / AVC, 1280x720 (16:9), 25 fps ~ 5006 Kbps
Аудио#1: Русский: 48 kHz, AC3, 2/0 (L,R) ch, ~192.00 kbps avg |Двухголосый закадровый|
Аудио#2: Украинский: 48 kHz, AC3, 2/0 (L,R) ch, ~192.00 kbps avg |Двухголосый закадровый, Новый канал|
Аудио#3: Английский: AC3, 48 KHz 6 ch ~ 384 Kb/s
Субтитры: Английские

MediaInfo

Общее
Уникальный идентификатор : 212963741658394761615396457033610694224 (0xA037532061DFB77BBD7BD38B95EE0E50)
Полное имя : S:ФильмыБизнес ради любви. BDRip720p. (AleksSin).mkv
Формат : Matroska
Версия формата : Version 4 / Version 2
Размер файла : 3,42 Гбайт
Продолжительность : 1 ч. 23 м.
Общий поток : 5892 Кбит/сек
Дата кодирования : UTC 2015-07-08 17:12:36
Программа кодирования : mkvmerge v8.1.0 ('Psychedelic Postcard') 32bit
Библиотека кодирования : libebml v1.3.1 + libmatroska v1.4.2
DURATION : 01:22:00.439000000
NUMBER_OF_FRAMES : 1545
NUMBER_OF_BYTES : 57122
_STATISTICS_WRITING_APP : mkvmerge v8.1.0 ('Psychedelic Postcard') 32bit
_STATISTICS_WRITING_DATE_UTC : 2015-07-08 17:12:36
_STATISTICS_TAGS : BPS DURATION NUMBER_OF_FRAMES NUMBER_OF_BYTES
Видео
Идентификатор : 1
Формат : AVC
Формат/Информация : Advanced Video Codec
Профиль формата : High@L4.1
Параметр CABAC формата : Да
Параметр ReFrames формата : 8 кадров
Идентификатор кодека : V_MPEG4/ISO/AVC
Продолжительность : 1 ч. 23 м.
Битрейт : 5006 Кбит/сек
Ширина : 1280 пикселей
Высота : 720 пикселей
Соотношение сторон : 16:9
Режим частоты кадров : Постоянный
Частота кадров : 25,000 кадров/сек
Цветовое пространство : YUV
Субдискретизация насыщенности : 4:2:0
Битовая глубина : 8 бит
Тип развёртки : Прогрессивная
Бит/(Пиксели*Кадры) : 0.217
Размер потока : 2,90 Гбайт (85%)
Библиотека кодирования : x264 core 146 r2538 121396c
Настройки программы : cabac=1 / ref=8 / deblock=1:-3:-3 / analyse=0x3:0x133 / me=umh / subme=11 / psy=1 / psy_rd=1.00:0.00 / mixed_ref=1 / me_range=32 / chroma_me=1 / trellis=2 / 8x8dct=1 / cqm=0 / deadzone=21,11 / fast_pskip=0 / chroma_qp_offset=-2 / threads=12 / lookahead_threads=2 / sliced_threads=0 / nr=0 / decimate=0 / interlaced=0 / bluray_compat=0 / constrained_intra=0 / bframes=8 / b_pyramid=2 / b_adapt=2 / b_bias=0 / direct=1 / weightb=1 / open_gop=0 / weightp=2 / keyint=250 / keyint_min=25 / scenecut=40 / intra_refresh=0 / rc=crf / mbtree=0 / crf=17.8 / qcomp=0.60 / qpmin=0 / qpmax=69 / qpstep=4 / ip_ratio=1.40 / pb_ratio=1.30 / aq=1:1.00
Default : Да
Forced : Нет
Аудио #1
Идентификатор : 2
Формат : AC-3
Формат/Информация : Audio Coding 3
Расширение режима : CM (complete main)
Параметр Endianness формата : Big
Идентификатор кодека : A_AC3
Продолжительность : 1 ч. 23 м.
Вид битрейта : Постоянный
Битрейт : 192 Кбит/сек
Каналы : 2 канала
Расположение каналов : Front: L R
Частота : 48,0 КГц
Битовая глубина : 16 бит
Метод сжатия : С потерями
Размер потока : 114 Мбайт (3%)
Заголовок : rus
Язык : Russian
Default : Да
Forced : Нет
Аудио #2
Идентификатор : 3
Формат : AC-3
Формат/Информация : Audio Coding 3
Расширение режима : CM (complete main)
Параметр Endianness формата : Big
Идентификатор кодека : A_AC3
Продолжительность : 1 ч. 23 м.
Вид битрейта : Постоянный
Битрейт : 192 Кбит/сек
Каналы : 2 канала
Расположение каналов : Front: L R
Частота : 48,0 КГц
Битовая глубина : 16 бит
Метод сжатия : С потерями
Размер потока : 114 Мбайт (3%)
Заголовок : ukr
Язык : Ukrainian
Default : Нет
Forced : Нет
Аудио #3
Идентификатор : 4
Формат : AC-3
Формат/Информация : Audio Coding 3
Расширение режима : CM (complete main)
Параметр Endianness формата : Big
Идентификатор кодека : A_AC3
Продолжительность : 1 ч. 23 м.
Вид битрейта : Постоянный
Битрейт : 384 Кбит/сек
Каналы : 6 каналов
Расположение каналов : Front: L C R, Side: L R, LFE
Частота : 48,0 КГц
Битовая глубина : 16 бит
Метод сжатия : С потерями
Размер потока : 228 Мбайт (7%)
Заголовок : eng
Язык : English
Default : Нет
Forced : Нет
Текст
Идентификатор : 5
Формат : UTF-8
Идентификатор кодека : S_TEXT/UTF8
Идентификатор кодека/Информация : UTF-8 Plain Text
Заголовок : sub
Язык : English
Default : Да
Forced : Нет

Скриншоты

[Профиль] [ЛС]
Кто просматривает тему:

Форум Тема Автор Размер
Apple Mac OS X (ОС и ПО) Scanner Pro [5.1.9, Бизнес, iOS 6.0, RUS] reversefile 27 MB
Программы [Разное] SUREMAX. Русское мобильное приложение для бизнеса и общения. Авторская раздача [Android 4.1, RUS] TorrentFilm 10 MB
Компьютерная литература (Программирование) Бизнес-решения - Джелен Б., Александер М. - Сводные таблицы в Microsoft Excel [2007, DjVu, RUS] TorrentFilm 20 MB
Отечественные cериалы Жестокий бизнес (Дмитрий Кузьмин)[01-12 из 12] [2008, криминал, боевик, DVDRip] sergej644 8.23 GB
Разная литература Игорь Зорин - Оружие переговорщика. Безотказные правила и приемы (Бизнес-психология) [Психология, Переговоры, 2015, FB2, RTF] Garik014 12 MB
Разная литература Книжная серия - «Дискография» изд-ств: «Амфора», «Локид» (33 тома) [1993-2015, Мемуары, Биографии, Шоу-бизнес, FB2, DjVu] обновлено 29.02.2016 Garik014 101 MB
Разное Мошенничество в платежной сфере. Бизнес-энциклопедия (2015) PDF BOSS 6 MB
Разная литература Ребекка Клэйр, Тим Филлипс - Игра престолов. Уроки для жизни и бизнеса (2016) FB2 достали все 3 MB
Показать сообщения:    

Текущее время: Сегодня 06:16

Часовой пояс: GMT



Вы не можете начинать темы
Вы не можете отвечать на сообщения
Вы не можете редактировать свои сообщения
Вы не можете удалять свои сообщения
Вы не можете голосовать в опросах
Вы не можете прикреплять файлы к сообщениям
Вы не можете скачивать файлы