Биг-Сити / Большой город / Big City (Джамель Бенсала / Djamel Bensalah) [2007, Франция, Комедия, вестерн, детский, семейный, DVDRip] VO + Sub Rus + Original Fre

 
Автор Сообщение

TorrentFilm ®

Пол:

Стаж: 2 года

Сообщений: 7741



Награды: Нет

Торрент-статистика

Создавать темы 22-Дек-2014 02:01

[Цитировать]

Биг-Сити / Большой город / Big City
Страна: Франция
Жанр: Комедия, вестерн, детский, семейный
Год выпуска: 2007
Продолжительность: 01:37:21
Перевод: Одноголосый закадровый
Cубтитры: русские
Оригинальная аудиодорожка: французский
Режиссер: Джамель Бенсала / Djamel Bensalah
В ролях: Венсан Валладон, Паолина Бигэн, Жереми Денисти, Сами Сегир, Алексис Маа, Самен Телефор Тюну, Антон Балекджян, Рафаэль Бошар, Райан Аззуг Гомон, Меди Керуани, Грегуар Суверен, Тома Суверен, Тео Сентис, Николя Тау и др.
Описание: Когда индейцы напали на Биг-Сити, в нем остались только старый пьяница, городской дурачок и дети младше 12 лет. Чтобы поддержать хоть какую-то видимость порядка, дети решают исполнять обязанности своих отцов и матерей. Но на деле не все оказывается так просто, особенно для отпрысков местной проститутки, городского палача, гробовщика и других не менее достойных обитателей Биг-Сити. А тут еще и детишки индейцев объявляются на горизонте...
Абсолютно неполиткорректная французская комедия в стиле "Праздника непослушания".
Доп. информация: Фильм взят отсюда http://torrentfilm.net/forum/viewtopic.php?t=3135672
Сэмпл: http://multi-up.com/1018729
Качество видео: DVDRip
Формат видео: AVI
Видео: 576x240 (2.40:1), 25 fps, XviD Final 1.0.3 (build 37) ~858 kbps avg, 0.25 bit/pixel
Аудио 1: 48 kHz, MPEG Layer 3, 2 ch, ~128.00 kbps avg(Русский)
Аудио 2: 48 kHz, MPEG Layer 3, 2 ch, ~128.00 kbps avg(Французский)
Формат субтитров: softsub (SRT)
Доп. информация о субтитрах: Русские внешние (A.Whitelaw)

MediaInfo

Общее
Полное имя : F:\С моей озвучкой\Биг-Сити\Big City.avi
Формат : AVI
Формат/Информация : Audio Video Interleave
Размер файла : 786 Мбайт
Продолжительность : 1 ч. 37 м.
Общий поток : 1129 Кбит/сек
Программа кодирования : VirtualDubModRus 1.5.10.2 (build 2542/release)
Библиотека кодирования : VirtualDubMod build 2542/release
Видео
Идентификатор : 0
Формат : MPEG-4 Visual
Профиль формата : Advanced Simple@L5
Параметр BVOP формата : 2
Параметр QPel формата : Нет
Параметр GMC формата : Без точки перехода
Параметр матрицы формата : Default (H.263)
Режим смешивания : Сжатый битовый поток
Идентификатор кодека : XVID
Идентификатор кодека/Подсказка : XviD
Продолжительность : 1 ч. 37 м.
Битрейт : 859 Кбит/сек
Ширина : 576 пикселей
Высота : 240 пикселей
Соотношение сторон : 2,40:1
Частота кадров : 25,000 кадров/сек
Цветовое пространство : YUV
Субдискретизация насыщенности : 4:2:0
Битовая глубина : 8 бит
Тип развёртки : Прогрессивная
Метод сжатия : С потерями
Бит/(Пиксели*Кадры) : 0.249
Размер потока : 598 Мбайт (76%)
Библиотека кодирования : XviD 1.0.3 (UTC 2004-12-20)
Аудио #1
Идентификатор : 1
Формат : MPEG Audio
Версия формата : Version 1
Профиль формата : Layer 3
Режим : Joint stereo
Расширение режима : MS Stereo
Идентификатор кодека : 55
Идентификатор кодека/Подсказка : MP3
Продолжительность : 1 ч. 37 м.
Вид битрейта : Постоянный
Битрейт : 128 Кбит/сек
Каналы : 2 канала
Частота : 48,0 КГц
Метод сжатия : С потерями
Размер потока : 89,1 Мбайт (11%)
Выравнивание : Соединение по промежуткам
Продолжительность промежутка : 40 мс. (1,00 видеокадр)
Время предзагрузки промежутка : 504 мс.
Библиотека кодирования : LAME3.96
Аудио #2
Идентификатор : 2
Формат : MPEG Audio
Версия формата : Version 1
Профиль формата : Layer 3
Режим : Joint stereo
Расширение режима : MS Stereo
Идентификатор кодека : 55
Идентификатор кодека/Подсказка : MP3
Продолжительность : 1 ч. 37 м.
Вид битрейта : Постоянный
Битрейт : 128 Кбит/сек
Каналы : 2 канала
Частота : 48,0 КГц
Метод сжатия : С потерями
Размер потока : 89,1 Мбайт (11%)
Выравнивание : Соединение по промежуткам
Продолжительность промежутка : 40 мс. (1,00 видеокадр)
Время предзагрузки промежутка : 504 мс.

Скриншоты

[Профиль] [ЛС]

Создавать темы 06-Авг-2015 22:53 (спустя 7 месяцев 15 дней)

Топик был перенесен из форума Фильмы до 2014 года в форум Фильмы до 2012 года
sergej644
 
Кто просматривает тему:

Показать сообщения:    

Текущее время: Сегодня 20:19

Часовой пояс: GMT



Вы не можете начинать темы
Вы не можете отвечать на сообщения
Вы не можете редактировать свои сообщения
Вы не можете удалять свои сообщения
Вы не можете голосовать в опросах
Вы не можете прикреплять файлы к сообщениям
Вы не можете скачивать файлы