Бигглз: Приключения во времени / Biggles: Adventures in Time (Джон Хаф) [1986 г., фантастика, приключения, BDRip-AVC] [MVO, AVO]

 
Автор Сообщение

Bathory ®

Пол:

Стаж: 9 месяцев

Сообщений: 169



Награды: 3 (Подробнее)

Girls (Количество: 1) Друг (Количество: 1) За внесенный вклад в развитие сайта (Количество: 1)
Торрент-статистика

Создавать темы 13-Мар-2016 15:19

[Цитировать]

Бигглз: Приключения во времени / Biggles: Adventures in Time- Информация о фильме
Название: Бигглз: Приключения во времени
Оригинальное название: Biggles: Adventures in Time
Год выхода: 1986
Жанр: фантастика, приключения
Режиссер: Джон Хаф
В ролях: Нил Диксон, Алекс Хайд-Вайт, Фиона Хатчинсон, Питер Кушинг, Маркус Гилберт, Уильям Хуткинс, Алан Полонски, Франческа Гоншо, Майкл Сиберри, Джеймс Сэксон
О фильме:
Что делать, если вы оказались временным близнецом прославленного аса Первой мировой войны, и вас постоянно в самые неожиданные моменты отбрасывает в 1917 год и возвращает в настоящее?
Вам ничего не остается, как возложить на себя сверхзадачу помочь английским войскам уничтожить секретное оружие немцев в 1917-м и спасать себя и Бигглза от полиции в настоящем…

Страна: Великобритания, США
Студия: Compact Yellowbill, Tambarle
Продолжительность: 01:32:22
Перевод:
1. Профессиональный (многоголосый закадровый) R5
2. Авторский (одноголосый закадровый) Андрей Гаврилов
Файл
Кодек: AVC
Качество: BDRip-AVC
Видео: 1024x552, 2563 kbps, 24 fps, 0,189 Bits/(Pixel*Frame)
Звук:
1. AC3, 48 kHz, 6 ch, 384 kbps - RUS (MVO)
1. AC3, 48 kHz, 6 ch, 384 kbps - RUS (AVO)
3. AC3, 48 kHz, 6 ch, 384 kbps - ENG (Original)
Субтитры: Нет

MI

General
Unique ID : 185240994649048029716894283013670137998 (0x8B5C1E2B90F3ABC6AC0B69FEEA49708E)
Complete name : E:Biggles.1986.Rus.Eng.BDRip-AVC_by_Bathory.mkv
Format : Matroska
Format version : Version 2
File size : 2.40 GiB
Duration : 1h 32mn
Overall bit rate : 3 714 Kbps
Encoded date : UTC 2016-03-13 14:51:22
Writing application : mkvmerge v8.9.0 ('Father Daughter') 32bit
Writing library : libebml v1.3.3 + libmatroska v1.4.4
DURATION : 01:32:16.256000000
NUMBER_OF_FRAMES : 173008
NUMBER_OF_BYTES : 265740288
_STATISTICS_WRITING_APP : mkvmerge v8.9.0 ('Father Daughter') 32bit
_STATISTICS_WRITING_DATE_UTC : 2016-03-13 14:51:22
_STATISTICS_TAGS : BPS DURATION NUMBER_OF_FRAMES NUMBER_OF_BYTES
Video
ID : 1
Format : AVC
Format/Info : Advanced Video Codec
Format profile : High@L4.1
Format settings, CABAC : Yes
Format settings, ReFrames : 11 frames
Codec ID : V_MPEG4/ISO/AVC
Duration : 1h 32mn
Bit rate : 2 563 Kbps
Width : 1 024 pixels
Height : 552 pixels
Display aspect ratio : 1.85:1
Frame rate mode : Constant
Frame rate : 24.000 fps
Color space : YUV
Chroma subsampling : 4:2:0
Bit depth : 8 bits
Scan type : Progressive
Bits/(Pixel*Frame) : 0.189
Stream size : 1.61 GiB (67%)
Writing library : x264 core 148 r2665 a01e339
Encoding settings : cabac=1 / ref=11 / deblock=1:-3:-2 / analyse=0x3:0x133 / me=umh / subme=11 / psy=1 / psy_rd=1.18:0.16 / mixed_ref=1 / me_range=32 / chroma_me=1 / trellis=2 / 8x8dct=1 / cqm=0 / deadzone=21,11 / fast_pskip=0 / chroma_qp_offset=-3 / threads=12 / lookahead_threads=3 / sliced_threads=0 / nr=0 / decimate=0 / interlaced=0 / bluray_compat=0 / constrained_intra=0 / bframes=12 / b_pyramid=2 / b_adapt=2 / b_bias=0 / direct=3 / weightb=1 / open_gop=0 / weightp=2 / keyint=240 / keyint_min=24 / scenecut=0 / intra_refresh=0 / rc_lookahead=60 / rc=2pass / mbtree=1 / bitrate=2563 / ratetol=1.0 / qcomp=0.70 / qpmin=0 / qpmax=69 / qpstep=4 / cplxblur=15.0 / qblur=0.5 / vbv_maxrate=62500 / vbv_bufsize=78125 / nal_hrd=none / filler=0 / ip_ratio=1.40 / aq=2:1.00
Default : Yes
Forced : No
Audio #1
ID : 2
Format : AC-3
Format/Info : Audio Coding 3
Mode extension : CM (complete main)
Format settings, Endianness : Big
Codec ID : A_AC3
Duration : 1h 32mn
Bit rate mode : Constant
Bit rate : 384 Kbps
Channel(s) : 6 channels
Channel positions : Front: L C R, Side: L R, LFE
Sampling rate : 48.0 KHz
Bit depth : 16 bits
Compression mode : Lossy
Stream size : 254 MiB (10%)
Language : Russian
Default : Yes
Forced : No
Audio #2
ID : 3
Format : AC-3
Format/Info : Audio Coding 3
Mode extension : CM (complete main)
Format settings, Endianness : Big
Codec ID : A_AC3
Duration : 1h 32mn
Bit rate mode : Constant
Bit rate : 384 Kbps
Channel(s) : 6 channels
Channel positions : Front: L C R, Side: L R, LFE
Sampling rate : 48.0 KHz
Bit depth : 16 bits
Compression mode : Lossy
Stream size : 254 MiB (10%)
Language : Russian
Default : No
Forced : No
Audio #3
ID : 4
Format : AC-3
Format/Info : Audio Coding 3
Mode extension : CM (complete main)
Format settings, Endianness : Big
Codec ID : A_AC3
Duration : 1h 32mn
Bit rate mode : Constant
Bit rate : 384 Kbps
Channel(s) : 6 channels
Channel positions : Front: L C R, Side: L R, LFE
Sampling rate : 48.0 KHz
Bit depth : 16 bits
Compression mode : Lossy
Stream size : 254 MiB (10%)
Language : English
Default : No
Forced : No

Скриншоты

Автор рипа: Bathory
[Профиль] [ЛС]
Кто просматривает тему:

Показать сообщения:    

Текущее время: Сегодня 08:12

Часовой пояс: GMT



Вы не можете начинать темы
Вы не можете отвечать на сообщения
Вы не можете редактировать свои сообщения
Вы не можете удалять свои сообщения
Вы не можете голосовать в опросах
Вы не можете прикреплять файлы к сообщениям
Вы не можете скачивать файлы