Биатлон с Дмитрием Губерниевым. Сезон 2014/2015. Выпуск 1-5 (2014) SATRip

 
Автор Сообщение

sergej644 ®

Пол:

Стаж: 4 года 11 месяцев

Сообщений: 6041

Откуда: Soviet Union



Награды: Нет

Торрент-статистика

Создавать темы 13-Дек-2014 20:43

[Цитировать]

Биатлон с Дмитрием Губерниевым. Сезон 2014/2015. Выпуск 1-5
Год выпуска: 2014-2015
Комментарий: Профессиональный
Язык комментариев: Русский
Ведущий: Дмитрий Губерниев-Описание: Для биатлонистов зима - это время мобилизации сил и полной концентрации. Для зрителей - начало интереснейших соревнований и сильных переживаний за сборную. В программе все, о чем хотят знать болельщики: новости и комментарии, интервью с лидерами соревнований и рассказы о российской команде.-Автор рипа: sanchez2011
Качество: SATRip
Формат: MKV
Видео кодек: AVC
Аудио кодек: MP2
Видео: MPEG4 Video (H264) 704x400 (16:9) 25fps 1700kbps
Аудио: MPEG Audio 48000Hz stereo 192kbps

Скриншоты


MediaInfo

MediaInfo
General
Unique ID                : 249383996485592279711146386100110359892 (0xBB9D9C5371B252A5ACEF47CC483DFD54)
Complete name              : E:TorrentБиатлон с Губерниевым. Сезон 2014-2015. Все выпускиВыпуск 01 (Эфир от 2014.11.30).mkv
Format                  : Matroska
Format version              : Version 4 / Version 2
File size                : 358 MiB
Duration                 : 26mn 8s
Overall bit rate             : 1 915 Kbps
Encoded date               : UTC 2014-11-30 14:50:27
Writing application           : mkvmerge v6.7.0 ('Back to the Ground') 64bit built on Jan 8 2014 15:10:52
Writing library             : XviD4PSP 6.0 / 53.6.0
Video
ID                    : 1
Format                  : AVC
Format/Info               : Advanced Video Codec
Format profile              : High@L4.1
Format settings, CABAC          : Yes
Format settings, ReFrames        : 3 frames
Codec ID                 : V_MPEG4/ISO/AVC
Duration                 : 26mn 8s
Bit rate                 : 1 700 Kbps
Width                  : 704 pixels
Height                  : 400 pixels
Display aspect ratio           : 16:9
Frame rate mode             : Constant
Frame rate                : 25.000 fps
Color space               : YUV
Chroma subsampling            : 4:2:0
Bit depth                : 8 bits
Scan type                : Progressive
Bits/(Pixel*Frame)            : 0.241
Stream size               : 315 MiB (88%)
Writing library             : x264 core 116 r2019M 9cc407d
Encoding settings            : cabac=1 / ref=3 / deblock=1:0:0 / analyse=0x3:0x133 / me=hex / subme=7 / psy=1 / psy_rd=1.00:0.20 / mixed_ref=1 / me_range=16 / chroma_me=1 / trellis=1 / 8x8dct=1 / cqm=0 / deadzone=21,11 / fast_pskip=1 / chroma_qp_offset=-3 / threads=8 / sliced_threads=0 / nr=0 / decimate=1 / interlaced=0 / bluray_compat=0 / constrained_intra=0 / bframes=3 / b_pyramid=1 / b_adapt=2 / b_bias=0 / direct=3 / weightb=1 / open_gop=0 / weightp=2 / keyint=250 / keyint_min=25 / scenecut=40 / intra_refresh=0 / rc_lookahead=40 / rc=abr / mbtree=1 / bitrate=1700 / ratetol=1.0 / qcomp=0.60 / qpmin=10 / qpmax=51 / qpstep=4 / ip_ratio=1.40 / aq=1:1.00
Default                 : Yes
Forced                  : No
Audio
ID                    : 2
Format                  : MPEG Audio
Format version              : Version 1
Format profile              : Layer 2
Codec ID                 : A_MPEG/L2
Codec ID/Hint              : MP2
Duration                 : 26mn 8s
Bit rate mode              : Constant
Bit rate                 : 192 Kbps
Channel(s)                : 2 channels
Sampling rate              : 48.0 KHz
Compression mode             : Lossy
Stream size               : 35.9 MiB (10%)
Language                 : English
Default                 : Yes
Forced                  : No

Содержание каждого выпуска из раздачи

Выпуск 1. Эфир от 2014.11.30
Продолжительность: 00:26:08
В этом выпуске:
- Почти год антидопинговая комиссия что-то искала в пробе Александра Логинова и нашла. Теперь наш спортсмен отстранен от соревнований.
- Олимпийский чемпион Бьерн Ферри написал книгу. Половина биатлонистов и тренеров с ужасом искало там что-то про себя, в надежде ничего не обнаружить.
- Слепцова сейчас в России, а не в Швеции. Почему так, на этот вопрос пытается ответить и сама спортсменка.
- Новая форма сборной России. Попытаемся найти отличии от прошлогоднего варианта.
и многое другое
-Выпуск 2. Эфир от 2014.12.01
Продолжительность: 00:26:40
В этом выпуске:
- Всесторонний анализ смешанной эстафеты: стрельба, ход, интервью со спортсменами, комментарии тренеров.
- О новых правилах в биатлоне: старт эстафеты коньковым ходом, изогнутые палки...
- Небольшой обзор текущих событий с кубка IBU.
- Устюгова зовут в команду, но он вряд ли вернется: интервью с Евгением Устюговым.
и многое другое.
-Выпуск 3. Эфир от 2014.12.06
Продолжительность: 00:25:44
В этом выпуске:
- Как правильно проходить спуски? Для этого пока лучше смотреть на иностранных участников;
- Итоги индивидуальных гонок в Эстресунде: Тихонов призывает не унывать;
- Дарья Домрачева не только дивная биатлонистка, но и чудный переводчик;
- История российской формы;
- Олимпийская чемпионка Юлия Джима рисует лучше всех из биатлонистов;
- Сколько друзей осталось у Бьерна Ферри после того, как он написал свою книгу?
и многое другое.
-Выпуск 4. Эфир от 08.12.2014
Продолжительность: 00:25:51
В этом выпуске:
- Первый подиум в нынешнем кубковом сезоне, а это значит, что будет большое интервью с Антоном Шипулиным;
- Главные герои гонок преследования - Landertinger и Elise Ringen. Что же они такого сделали?
- Где же мы проигрываем, а где мы быстрее конкурентов - всесторонний анализ гонок в Швеции.
- Когда же мы увидим Ольгу Зайцеву? Илья Трифанов уже увидел.
- О чем говорят биатлонные болельщики?
- Фильм телеканала ARD о допингах в России. Почему такое кино не снимали после олимпиады в Ванкувере?
и многое другое.
-Выпуск 5. Эфир от 13.12.2014
Продолжительность: 00:25:05
В этом выпуске:
- В женском спринте мы могли попасть на подиум даже с промахом. Ну когда такое было?
- По каким мишеням стреляли 40 лет назад?
- Побегаем на зарядке с российскими биатлонистами.
- Яна Романова знает, как очистить винтовку от снега. Теперь знаем и мы.
- Если ночью -36, состоится ли днем биатлонная гонка?
- Тимофей Лапшин, если что, готов помочь нашим футболистам выйти из группового этапа Лиги Чемпионов.
- Что любят готовить биатлонисты?
и многое другое.
[Профиль] [ЛС]

Создавать темы 02-Авг-2015 23:23 (спустя 7 месяцев 20 дней)

Топик был перенесен из форума Спортивные фильмы и передачи в форум разное
sergej644
 
Кто просматривает тему:

Форум Тема Автор Размер
Разное Биатлон. Кубок Мира 2014-15. 1-й этап. Эстерсунд (Швеция) 1-й этап. Эстерсунд (Швеция) Женщины. Гонка преслед Евроспорт (2014) SATRip sergej644 653 MB
Разное Биатлон. Кубок Мира 2014-15. 1-й этап. Эстерсунд (Швеция) 1-й этап. Эстерсунд (Швеция) Женщины. Гонка преследов (2014) HDTVRip 720p | 50 FPS sergej644 1.33 GB
Разное Биатлон. Кубок Мира 2014-15. 1-й этап. Эстерсунд (Швеция) 1-й этап. Эстерсунд (Швеция) Женщины. Гонка преследования 10 км (2014) HDTV 1080i sergej644 3.89 GB
Разное Биатлон. Кубок Мира 2014-15. 1-й этап. Эстерсунд (Швеция) 1-й этап. Эстерсунд (Швеция) Мужчины. Гонка преслед (2014) HDTVRip 720p | 50 FPS sergej644 1.76 GB
Разное Биатлон. Кубок Мира 2014-15. 1-й этап. Эстерсунд (Швеция) 1-й этап. Эстерсунд (Швеция) Мужчины. Гонка преслед Евроспорт (2014) SATRip sergej644 997 MB
Разное Биатлон. Кубок Мира 2014-15. 1-й этап. Эстерсунд (Швеция) 1-й этап. Эстерсунд (Швеция) Мужчины. Гонка преследования 12,5 (2014) HDTV 1080i sergej644 5.07 GB
Разное Биатлон. Кубок Мира 2014-15. 1-й этап. Эстерсунд (Швеция) 1-й этап. Эстерсунд (Швеция) Мужчины. Спринт 10 км Евроспорт (2014) SATRip sergej644 1.03 GB
Разное Биатлон. Кубок Мира 2014-15. 1-й этап. Эстерсунд (Швеция) Индивидуальная гонка 15 км. Женщины (2014) HDTVRip 720p | 50 FPS sergej644 3.29 GB
Показать сообщения:    

Текущее время: Сегодня 14:54

Часовой пояс: GMT



Вы не можете начинать темы
Вы не можете отвечать на сообщения
Вы не можете редактировать свои сообщения
Вы не можете удалять свои сообщения
Вы не можете голосовать в опросах
Вы не можете прикреплять файлы к сообщениям
Вы не можете скачивать файлы