Биатлон. Кубок Мира 2014-15. 9-й этап. Ханты-Мансийск. Женщины. Гонка преследования 10 км [21.03] (2015) HDTV 1080i

 
Автор Сообщение

sergej644 ®

Пол:

Стаж: 4 года 11 месяцев

Сообщений: 6043

Откуда: Soviet Union



Награды: Нет

Торрент-статистика

Создавать темы 21-Мар-2015 18:05

[Цитировать]

Кубок Мира 2014-15. 9-й этап. Ханты-Мансийск (Россия)
Женщины. Гонка преследования 10 км
Вид спорта: Биатлон
Комментарий: Профессиональный
Язык комментариев: Русский (Губерниев)-Описание: Кубок Мира 2014-15. 9-й этап. Ханты-Мансийск (Россия). Женщины. Гонка преследования 10 км.-Автор рипа: sanchez2011
Качество: HDTV
Формат: TS
Видео кодек: AVC
Аудио кодек: MP2
Видео: MPEG4 Video (H264) 1920x1080 (16:9) 25fps 10700kbps
Аудио: MPEG Audio 48000Hz stereo 192kbp

Старт-лист

Стартовый листСкриншоты

Продолжительность

Продолжительность: 00:49:04

Результат и Статистика

Результаты

MediaInfo

General
ID : 1 (0x1)
Complete name : H:раздачиКубок Мира 2014-15. 9-й этап. Ханты-Мансийск (Россия). Женщины. Гонка преследования 10 км. Спорт 1.ts
Format : MPEG-TS
File size : 3.94 GiB
Duration : 49mn 4s
Overall bit rate mode : Variable
Overall bit rate : 11.5 Mbps
Video
ID : 303 (0x12F)
Menu ID : 20103 (0x4E87)
Format : AVC
Format/Info : Advanced Video Codec
Format profile : High@L4.0
Format settings, CABAC : Yes
Format settings, ReFrames : 4 frames
Codec ID : 27
Duration : 49mn 4s
Bit rate : 10.7 Mbps
Width : 1 920 pixels
Height : 1 080 pixels
Display aspect ratio : 16:9
Frame rate : 25.000 fps
Standard : Component
Color space : YUV
Chroma subsampling : 4:2:0
Bit depth : 8 bits
Scan type : Interlaced
Scan order : Top Field First
Bits/(Pixel*Frame) : 0.207
Stream size : 3.68 GiB (93%)
Color primaries : BT.709
Transfer characteristics : BT.709
Matrix coefficients : BT.709
Color range : Limited
Audio
ID : 403 (0x193)
Menu ID : 20103 (0x4E87)
Format : MPEG Audio
Format version : Version 1
Format profile : Layer 2
Codec ID : 3
Duration : 49mn 4s
Bit rate mode : Constant
Bit rate : 192 Kbps
Channel(s) : 2 channels
Sampling rate : 48.0 KHz
Compression mode : Lossy
Delay relative to video : -40ms
Stream size : 67.4 MiB (2%)
Language : Russian
[Профиль] [ЛС]

Создавать темы 02-Авг-2015 23:23 (спустя 4 месяца 12 дней)

Топик был перенесен из форума Спортивные фильмы и передачи в форум разное
sergej644
 
Кто просматривает тему:

Форум Тема Автор Размер
Разное Биатлон с Дмитрием Губерниевым. Сезон 2014/2015. Выпуск 1-5 (2014) SATRip sergej644 1.72 GB
Разное Биатлон. Кубок Мира 2014-15. 1-й этап. Эстерсунд (Швеция) 1-й этап. Эстерсунд (Швеция) Женщины. Гонка преслед Евроспорт (2014) SATRip sergej644 653 MB
Разное Биатлон. Кубок Мира 2014-15. 1-й этап. Эстерсунд (Швеция) 1-й этап. Эстерсунд (Швеция) Женщины. Гонка преследов (2014) HDTVRip 720p | 50 FPS sergej644 1.33 GB
Разное Биатлон. Кубок Мира 2014-15. 1-й этап. Эстерсунд (Швеция) 1-й этап. Эстерсунд (Швеция) Женщины. Гонка преследования 10 км (2014) HDTV 1080i sergej644 3.89 GB
Разное Биатлон. Кубок Мира 2014-15. 1-й этап. Эстерсунд (Швеция) 1-й этап. Эстерсунд (Швеция) Мужчины. Гонка преслед (2014) HDTVRip 720p | 50 FPS sergej644 1.76 GB
Разное Биатлон. Кубок Мира 2014-15. 1-й этап. Эстерсунд (Швеция) 1-й этап. Эстерсунд (Швеция) Мужчины. Гонка преслед Евроспорт (2014) SATRip sergej644 997 MB
Разное Биатлон. Кубок Мира 2014-15. 1-й этап. Эстерсунд (Швеция) 1-й этап. Эстерсунд (Швеция) Мужчины. Гонка преследования 12,5 (2014) HDTV 1080i sergej644 5.07 GB
Разное Биатлон. Кубок Мира 2014-15. 1-й этап. Эстерсунд (Швеция) 1-й этап. Эстерсунд (Швеция) Мужчины. Спринт 10 км Евроспорт (2014) SATRip sergej644 1.03 GB
Показать сообщения:    

Текущее время: Сегодня 02:23

Часовой пояс: GMT



Вы не можете начинать темы
Вы не можете отвечать на сообщения
Вы не можете редактировать свои сообщения
Вы не можете удалять свои сообщения
Вы не можете голосовать в опросах
Вы не можете прикреплять файлы к сообщениям
Вы не можете скачивать файлы