Биатлон. Кубок Мира 2014-15. 3-й этап. Поклюка (Словения). Мужчины. Спринт 10 км [Eurosport HD] (2014) HDTV 1080i

 
Автор Сообщение

sergej644 ®

Пол:

Стаж: 4 года 11 месяцев

Сообщений: 6038

Откуда: Soviet Union



Награды: Нет

Торрент-статистика

Создавать темы 19-Дек-2014 17:34

[Цитировать]

Кубок Мира 2014-15. 3-й этап. Поклюка (Словения). Мужчины. Спринт 10 км
Вид спорта: Биатлон
Комментарий: Профессиональный
Язык комментариев: Русский (Андрей Романов)-Описание: Кубок Мира 2014-15. 3-й этап. Поклюка (Словения). Мужчины. Спринт 10 км.-Автор рипа: sanchez2011
Качество: HDTV
Формат: TS
Видео кодек: AVC
Аудио кодек: MP2
Видео: MPEG4 Video (H264) 1920x1080 (16:9) 25fps 9200kbps
Аудио: MPEG Audio 48000Hz stereo 192kbps

Стартовые составы

Стартовый лист

Скриншоты

Продолжительность

Продолжительность: 00:59:49

Результат и Статистика

Результаты

MediaInfo

General
ID                    : 1 (0x1)
Complete name              : E:TorrentБиатлон. Сезон 2014-2015Кубок Мира 2014-15. 3-й этап. Поклюка (Словения). Мужчины. Спринт 10 км Евроспорт HD.ts
Format                  : MPEG-TS
File size                : 4.13 GiB
Duration                 : 59mn 49s
Overall bit rate mode          : Variable
Overall bit rate             : 9 879 Kbps
Video
ID                    : 513 (0x201)
Menu ID                 : 1 (0x1)
Format                  : AVC
Format/Info               : Advanced Video Codec
Format profile              : High@L4.0
Format settings, CABAC          : Yes
Format settings, ReFrames        : 4 frames
Codec ID                 : 27
Duration                 : 59mn 49s
Bit rate                 : 9 197 Kbps
Width                  : 1 920 pixels
Height                  : 1 080 pixels
Display aspect ratio           : 16:9
Frame rate                : 25.000 fps
Color space               : YUV
Chroma subsampling            : 4:2:0
Bit depth                : 8 bits
Scan type                : MBAFF
Bits/(Pixel*Frame)            : 0.177
Stream size               : 3.84 GiB (93%)
Color primaries             : BT.709
Transfer characteristics         : BT.709
Matrix coefficients           : BT.709
Audio
ID                    : 514 (0x202)
Menu ID                 : 1 (0x1)
Format                  : MPEG Audio
Format version              : Version 1
Format profile              : Layer 2
Codec ID                 : 3
Duration                 : 59mn 49s
Bit rate mode              : Constant
Bit rate                 : 192 Kbps
Channel(s)                : 2 channels
Sampling rate              : 48.0 KHz
Compression mode             : Lossy
Stream size               : 82.1 MiB (2%)
Language                 : Russian
[Профиль] [ЛС]

Создавать темы 02-Авг-2015 23:23 (спустя 7 месяцев 14 дней)

Топик был перенесен из форума Спортивные фильмы и передачи в форум разное
sergej644
 
Кто просматривает тему:

Форум Тема Автор Размер
Разное Биатлон с Дмитрием Губерниевым. Сезон 2014/2015. Выпуск 1-5 (2014) SATRip sergej644 1.72 GB
Разное Биатлон. Кубок Мира 2014-15. 1-й этап. Эстерсунд (Швеция) 1-й этап. Эстерсунд (Швеция) Женщины. Гонка преслед Евроспорт (2014) SATRip sergej644 653 MB
Разное Биатлон. Кубок Мира 2014-15. 1-й этап. Эстерсунд (Швеция) 1-й этап. Эстерсунд (Швеция) Женщины. Гонка преследов (2014) HDTVRip 720p | 50 FPS sergej644 1.33 GB
Разное Биатлон. Кубок Мира 2014-15. 1-й этап. Эстерсунд (Швеция) 1-й этап. Эстерсунд (Швеция) Женщины. Гонка преследования 10 км (2014) HDTV 1080i sergej644 3.89 GB
Разное Биатлон. Кубок Мира 2014-15. 1-й этап. Эстерсунд (Швеция) 1-й этап. Эстерсунд (Швеция) Мужчины. Гонка преслед (2014) HDTVRip 720p | 50 FPS sergej644 1.76 GB
Разное Биатлон. Кубок Мира 2014-15. 1-й этап. Эстерсунд (Швеция) 1-й этап. Эстерсунд (Швеция) Мужчины. Гонка преслед Евроспорт (2014) SATRip sergej644 997 MB
Разное Биатлон. Кубок Мира 2014-15. 1-й этап. Эстерсунд (Швеция) 1-й этап. Эстерсунд (Швеция) Мужчины. Гонка преследования 12,5 (2014) HDTV 1080i sergej644 5.07 GB
Разное Биатлон. Кубок Мира 2014-15. 1-й этап. Эстерсунд (Швеция) 1-й этап. Эстерсунд (Швеция) Мужчины. Спринт 10 км Евроспорт (2014) SATRip sergej644 1.03 GB
Показать сообщения:    

Текущее время: Сегодня 22:11

Часовой пояс: GMT



Вы не можете начинать темы
Вы не можете отвечать на сообщения
Вы не можете редактировать свои сообщения
Вы не можете удалять свои сообщения
Вы не можете голосовать в опросах
Вы не можете прикреплять файлы к сообщениям
Вы не можете скачивать файлы