Биатлон. Кубок Мира 2014-15. 1-й этап. Эстерсунд (Швеция) 1-й этап. Эстерсунд (Швеция) Мужчины. Гонка преслед Евроспорт (2014) SATRip

 
Автор Сообщение

sergej644 ®

Пол:

Стаж: 4 года 11 месяцев

Сообщений: 6042

Откуда: Soviet Union



Награды: Нет

Торрент-статистика

Создавать темы 07-Дек-2014 18:37

[Цитировать]

Кубок Мира 2014-15. 1-й этап. Эстерсунд (Швеция). Мужчины. Гонка преследования 12,5 км
Вид спорта: Биатлон
Комментарий: Профессиональный
Язык комментариев: Русский (Сергей Курдюков) / Английский-Описание: Кубок Мира 2014-15. 1-й этап. Эстерсунд (Швеция). Мужчины. Гонка преследования 12,5 км. Перед гонкой обзор спринта.-Автор рипа: sanchez2011
Качество: SATRip
Формат: MKV
Видео кодек: AVC
Аудио кодек: MP2
Видео: MPEG4 Video (H264) 720x400 (16:9) 25fps 2500kbps
Аудио: MPEG Audio 48000Hz mono 96kbps [Русский]
Аудио: MPEG Audio 48000Hz stereo 192kbps [Английский]

Стартовый лист

Стартовый лист

Скриншоты

Продолжительность

Продолжительность: 00:47:28

Результат и Статистика

Результаты

MediaInfo

General
Unique ID                : 171573314576051366227365215547009138330 (0x8113D183F8C37B1B90B526922B59FE9A)
Complete name              : E:TorrentБиатлон. Сезон 2014-2015Кубок Мира 2014-15. 1-й этап. Эстерсунд (Швеция). Мужчины. Гонка преследования 12,5 км. Евроспорт.mkv
Format                  : Matroska
Format version              : Version 4 / Version 2
File size                : 997 MiB
Duration                 : 47mn 28s
Overall bit rate             : 2 936 Kbps
Encoded date               : UTC 2014-12-07 11:01:42
Writing application           : mkvmerge v6.7.0 ('Back to the Ground') 64bit built on Jan 8 2014 15:10:52
Writing library             : XviD4PSP 6.0 / 53.6.0
Video
ID                    : 1
Format                  : AVC
Format/Info               : Advanced Video Codec
Format profile              : High@L4.1
Format settings, CABAC          : Yes
Format settings, ReFrames        : 3 frames
Codec ID                 : V_MPEG4/ISO/AVC
Duration                 : 47mn 28s
Bit rate                 : 2 589 Kbps
Width                  : 720 pixels
Height                  : 400 pixels
Display aspect ratio           : 16:9
Frame rate mode             : Constant
Frame rate                : 25.000 fps
Color space               : YUV
Chroma subsampling            : 4:2:0
Bit depth                : 8 bits
Scan type                : Progressive
Bits/(Pixel*Frame)            : 0.360
Stream size               : 879 MiB (88%)
Writing library             : x264 core 116 r2019M 9cc407d
Encoding settings            : cabac=1 / ref=3 / deblock=1:0:0 / analyse=0x3:0x133 / me=hex / subme=7 / psy=1 / psy_rd=1.00:0.20 / mixed_ref=1 / me_range=16 / chroma_me=1 / trellis=1 / 8x8dct=1 / cqm=0 / deadzone=21,11 / fast_pskip=1 / chroma_qp_offset=-3 / threads=8 / sliced_threads=0 / nr=0 / decimate=1 / interlaced=0 / bluray_compat=0 / constrained_intra=0 / bframes=3 / b_pyramid=1 / b_adapt=2 / b_bias=0 / direct=3 / weightb=1 / open_gop=0 / weightp=2 / keyint=250 / keyint_min=25 / scenecut=40 / intra_refresh=0 / rc=cqp / mbtree=0 / qp=21 / ip_ratio=1.40 / pb_ratio=1.30 / aq=0
Default                 : Yes
Forced                  : No
Audio #1
ID                    : 2
Format                  : MPEG Audio
Format version              : Version 1
Format profile              : Layer 2
Codec ID                 : A_MPEG/L2
Codec ID/Hint              : MP2
Duration                 : 47mn 28s
Bit rate mode              : Constant
Bit rate                 : 96.0 Kbps
Channel(s)                : 1 channel
Sampling rate              : 48.0 KHz
Compression mode             : Lossy
Delay relative to video         : 29ms
Stream size               : 32.6 MiB (3%)
Language                 : Russian
Default                 : Yes
Forced                  : No
Audio #2
ID                    : 3
Format                  : MPEG Audio
Format version              : Version 1
Format profile              : Layer 2
Codec ID                 : A_MPEG/L2
Codec ID/Hint              : MP2
Duration                 : 47mn 28s
Bit rate mode              : Constant
Bit rate                 : 192 Kbps
Channel(s)                : 2 channels
Sampling rate              : 48.0 KHz
Compression mode             : Lossy
Delay relative to video         : 5ms
Stream size               : 65.2 MiB (7%)
Language                 : English
Default                 : No
Forced                  : No
[Профиль] [ЛС]

Создавать темы 02-Авг-2015 23:24 (спустя 7 месяцев 26 дней)

Топик был перенесен из форума Спортивные фильмы и передачи в форум разное
sergej644
 
Кто просматривает тему:

Форум Тема Автор Размер
Разное Биатлон с Дмитрием Губерниевым. Сезон 2014/2015. Выпуск 1-5 (2014) SATRip sergej644 1.72 GB
Разное Биатлон. Кубок Мира 2014-15. 1-й этап. Эстерсунд (Швеция) 1-й этап. Эстерсунд (Швеция) Женщины. Гонка преслед Евроспорт (2014) SATRip sergej644 653 MB
Разное Биатлон. Кубок Мира 2014-15. 1-й этап. Эстерсунд (Швеция) 1-й этап. Эстерсунд (Швеция) Женщины. Гонка преследов (2014) HDTVRip 720p | 50 FPS sergej644 1.33 GB
Разное Биатлон. Кубок Мира 2014-15. 1-й этап. Эстерсунд (Швеция) 1-й этап. Эстерсунд (Швеция) Женщины. Гонка преследования 10 км (2014) HDTV 1080i sergej644 3.89 GB
Разное Биатлон. Кубок Мира 2014-15. 1-й этап. Эстерсунд (Швеция) 1-й этап. Эстерсунд (Швеция) Мужчины. Гонка преслед (2014) HDTVRip 720p | 50 FPS sergej644 1.76 GB
Разное Биатлон. Кубок Мира 2014-15. 1-й этап. Эстерсунд (Швеция) 1-й этап. Эстерсунд (Швеция) Мужчины. Гонка преследования 12,5 (2014) HDTV 1080i sergej644 5.07 GB
Разное Биатлон. Кубок Мира 2014-15. 1-й этап. Эстерсунд (Швеция) 1-й этап. Эстерсунд (Швеция) Мужчины. Спринт 10 км Евроспорт (2014) SATRip sergej644 1.03 GB
Разное Биатлон. Кубок Мира 2014-15. 1-й этап. Эстерсунд (Швеция) Индивидуальная гонка 15 км. Женщины (2014) HDTVRip 720p | 50 FPS sergej644 3.29 GB
Показать сообщения:    

Текущее время: Сегодня 14:27

Часовой пояс: GMT



Вы не можете начинать темы
Вы не можете отвечать на сообщения
Вы не можете редактировать свои сообщения
Вы не можете удалять свои сообщения
Вы не можете голосовать в опросах
Вы не можете прикреплять файлы к сообщениям
Вы не можете скачивать файлы