Бети и Амар / Beti and Amare (Энди Сидж / Andy Siege) [2014, США, Испания, Румыния, Германия, Канада, Эфиопия, фантастика, фэнтези, мелодрама, SATRip] MVO (Камер-Тон-Медиа)

 
Автор Сообщение

TorrentFilm ®

Пол:

Стаж: 2 года

Сообщений: 7741



Награды: Нет

Торрент-статистика

Создавать темы 17-Дек-2014 02:36

[Цитировать]

Бети и Амар / Beti and Amare
Страна: США, Испания, Румыния, Германия, Канада, Эфиопия
Жанр: фантастика, фэнтези, мелодрама
Год выпуска: 2014
Продолжительность: 01:30:01
Перевод: Профессиональный (многоголосый закадровый) студия "Камер-Тон-Медиа"
Cубтитры: нет
Оригинальная аудиодорожка: нет
Режиссер: Энди Сидж / Andy Siege
В ролях: Хивот Азрес
Паскаль Доусон
Йонас Ан Кидане
Беньям Коре
Делелень Шарве
Энди Сидж
Махдере Ха Сисе
Atrsaw Wisenbet
Описание: 1936 год. Фашистская армия Муссолини вторгается в Эфиопию. Юная Бети бежит от ужасов войны к деду. Но оказывается в еще более сложной ситуации, из которой ей помогает выбраться космический пришелец…
Доп.информация: рип с канала Культура. Остатки логотипа замазаны.
Сэмпл: http://multi-up.com/1018247
Качество видео: SATRip
Формат видео: AVI
Видео: MPEG4, XviD, 720x400 (16/9), 25.000 fps, 1 976 Kbps (0.274 bit/pixel)
Аудио: AC-3, 48.0 KHz, 2 ch, 192 Kbps, CBR

MediaInfo

Общее
Полное имя : K:\Бети и Амар.avi
Формат : AVI
Формат/Информация : Audio Video Interleave
Размер файла : 1,37 Гбайт
Продолжительность : 1 ч. 30 м.
Общий поток : 2178 Кбит/сек
Название фильма : Бети и Амар / Beti and Amare (2014)
Программа кодирования : VirtualDubMod 1.5.10.2 (build 2540/release)
Библиотека кодирования : VirtualDubMod build 2540/release
Правообладатель : miha2154
Видео
Идентификатор : 0
Формат : MPEG-4 Visual
Профиль формата : Advanced Simple@L5
Параметр BVOP формата : 1
Параметр QPel формата : Нет
Параметр GMC формата : Без точки перехода
Параметр матрицы формата : Выборочная
Идентификатор кодека : XVID
Идентификатор кодека/Подсказка : XviD
Продолжительность : 1 ч. 30 м.
Битрейт : 1976 Кбит/сек
Ширина : 720 пикселей
Высота : 400 пикселей
Соотношение сторон : 16:9
Частота кадров : 25,000 кадров/сек
Цветовое пространство : YUV
Субдискретизация насыщенности : 4:2:0
Битовая глубина : 8 бит
Тип развёртки : Прогрессивная
Метод сжатия : С потерями
Бит/(Пиксели*Кадры) : 0.274
Размер потока : 1,24 Гбайт (91%)
Библиотека кодирования : XviD 65
Аудио
Идентификатор : 1
Формат : AC-3
Формат/Информация : Audio Coding 3
Расширение режима : CM (complete main)
Параметр Endianness формата : Big
Идентификатор кодека : 2000
Продолжительность : 1 ч. 30 м.
Вид битрейта : Постоянный
Битрейт : 192 Кбит/сек
Каналы : 2 канала
Расположение каналов : Front: L R
Частота : 48,0 КГц
Битовая глубина : 16 бит
Метод сжатия : С потерями
Размер потока : 124 Мбайт (9%)
Выравнивание : Разделение по промежуткам
Продолжительность промежутка : 40 мс. (1,00 видеокадр)
Время предзагрузки промежутка : 500 мс.
Заголовок : Профессиональный (многоголосый закадровый) Культура

Скриншот c названием фильма

Скриншоты

[Профиль] [ЛС]
Кто просматривает тему:

Показать сообщения:    

Текущее время: Сегодня 18:48

Часовой пояс: GMT



Вы не можете начинать темы
Вы не можете отвечать на сообщения
Вы не можете редактировать свои сообщения
Вы не можете удалять свои сообщения
Вы не можете голосовать в опросах
Вы не можете прикреплять файлы к сообщениям
Вы не можете скачивать файлы