Бесценный / Роковая красотка / Hors de prix (Пьер Сальвадори / Pierre Salvadori) [2006, Франция, мелодрама, комедия, DVDRip] AVO (Евгений Гранкин) + Original Fre

 
Автор Сообщение

TorrentFilm ®

Пол:

Стаж: 2 года

Сообщений: 7741



Награды: Нет

Торрент-статистика

Создавать темы 25-Сен-2015 00:08

[Цитировать]

Бесценный / Роковая красотка / Hors de prix
Страна: Франция
Жанр: мелодрама, комедия
Год выпуска: 2006
Продолжительность: 01:41:07
Перевод: Авторский (одноголосый закадровый) Евгений Гранкин
Cубтитры: нет
Оригинальная аудиодорожка: французский
Режиссер: Пьер Сальвадори / Pierre Salvadori
В ролях: Одри Тоту, Гад Эльмалех, Мари-Кристин Адам, Вернон Добчефф, Жак Списсер, Аннелиз Эм, Шарлотта Вермейл, Клодин Башет, Лоран Кларе, Жан Де Конинк
Описание: Авантюристка Ирен принимает скромного служащего отеля Жана за миллиардера. Обнаружив свою ошибку, она тут же покидает его, однако влюбленный Жан бросается следом.
Его сбережения быстро заканчиваются, и от отчаяния Жан принимает предложение стать сопровождающим немолодой, но чрезвычайно обеспеченной дамы. Новый статус сближает его с Ирен, которая, в конце концов, смиряется с присутствием Жана. Она помогает Жану советом, и, сама того не осознавая, начинает все больше и больше привязываться к нему.

Доп. информация: За дорожку спасибо Glowamy
Сэмпл: http://sendfile.su/1156994
Качество видео: DVDRip
Формат видео: AVI
Видео: XviD, 640x272 (2.35:1), 25.000 fps, ~1538 kbps avg, 0.353 bit/pixel
Аудио 1: AC3 Dolby Digital, 48 kHz, 192 kbps, 2/0 (L,R)
Аудио 2: AC3 Dolby Digital, 48 kHz, 384 kbps, 3/2 (L,C,R,l,r) + LFE ch

MediaInfo

Общее
Полное имя : G:\Downloads\Hors.de.prix.2006.DVDRip.XviD.avi
Формат : AVI
Формат/Информация : Audio Video Interleave
Размер файла : 1,50 Гбайт
Продолжительность : 1 ч. 41 м.
Общий поток : 2127 Кбит/сек
Видео
Идентификатор : 0
Формат : MPEG-4 Visual
Профиль формата : Advanced Simple@L5
Параметр BVOP формата : 1
Параметр QPel формата : Нет
Параметр GMC формата : Без точки перехода
Параметр матрицы формата : Default (MPEG)
Идентификатор кодека : XVID
Идентификатор кодека/Подсказка : XviD
Продолжительность : 1 ч. 41 м.
Битрейт : 1538 Кбит/сек
Ширина : 640 пикселей
Высота : 272 пикселя
Соотношение сторон : 2,35:1
Частота кадров : 25,000 кадров/сек
Цветовое пространство : YUV
Субдискретизация насыщенности : 4:2:0
Битовая глубина : 8 бит
Тип развёртки : Прогрессивная
Метод сжатия : С потерями
Бит/(Пиксели*Кадры) : 0.353
Размер потока : 1,09 Гбайт (72%)
Библиотека кодирования : XviD 1.2.0.dev47 (UTC 2006-11-01)
Аудио #1
Идентификатор : 1
Формат : AC-3
Формат/Информация : Audio Coding 3
Расширение режима : CM (complete main)
Параметр Endianness формата : Big
Идентификатор кодека : 2000
Продолжительность : 1 ч. 40 м.
Вид битрейта : Постоянный
Битрейт : 192 Кбит/сек
Каналы : 2 канала
Расположение каналов : Front: L R
Частота : 48,0 КГц
Битовая глубина : 16 бит
Метод сжатия : С потерями
Размер потока : 138 Мбайт (9%)
Выравнивание : Разделение по промежуткам
Продолжительность промежутка : 40 мс. (1,01 видеокадр)
Время предзагрузки промежутка : 500 мс.
Аудио #2
Идентификатор : 2
Формат : AC-3
Формат/Информация : Audio Coding 3
Расширение режима : CM (complete main)
Параметр Endianness формата : Big
Идентификатор кодека : 2000
Продолжительность : 1 ч. 41 м.
Вид битрейта : Постоянный
Битрейт : 384 Кбит/сек
Каналы : 6 каналов
Расположение каналов : Front: L C R, Side: L R, LFE
Частота : 48,0 КГц
Битовая глубина : 16 бит
Метод сжатия : С потерями
Размер потока : 278 Мбайт (18%)
Выравнивание : Разделение по промежуткам
Продолжительность промежутка : 40 мс. (1,00 видеокадр)
Время предзагрузки промежутка : 500 мс.

Скриншот c названием фильма

Скриншоты

[Профиль] [ЛС]
Показать сообщения:    

Текущее время: Сегодня 13:49

Часовой пояс: GMT



Вы не можете начинать темы
Вы не можете отвечать на сообщения
Вы не можете редактировать свои сообщения
Вы не можете удалять свои сообщения
Вы не можете голосовать в опросах
Вы не можете прикреплять файлы к сообщениям
Вы не можете скачивать файлы