Бессонница [01-16 из 16] (2014) WEB-DLRip-AVC

 
Автор Сообщение

BOSS ®

Пол:

Стаж: 2 года 8 месяцев

Сообщений: 5865

Откуда: ODESSA



Награды: 20 (Подробнее)

Mega Seeder 3 (Количество: 1) Top Keeper 4 (Количество: 1) Top Releaser 4 (Количество: 1)
Торрент-статистика

Создавать темы 11-Ноя-2015 15:55

[Цитировать]

Год выпуска: 2014
Страна: Россия
Студия: DixiMedia
Жанр: боевик
Продолжительность: 16 серий ~ по 44 мин.
Перевод: не требуется
Субтитры: нет
Оригинальная аудиодорожка: русский
Режиссер: Андрей Мармонтов
В ролях:
Мацей Штур, Анна Антонова, Владислав Павлов, Юлия Юрченко, Эдуард Флёров, Александр Сетейкин, Алексей Матошин, Вероника Вернадская, Александр Константинов, Юлия Галкина, Дмитрий Астапенко, Андрей Курилов, Виктория Фишер, Дарья Повереннова, Алексей Фаддеев, Виктор Проскурин, Дмитрий Астрахан, Юрий Сувейко, Марина Кондратьева (II), Елена Коренева, Андрей Ташков, Александр Пашков, Мухтар Гусенгаджиев, Владимир Качан, Максим Щёголев, Дмитрий Файнштейн, Михаил Хмуров, Юлия Шиферштейн, Иван Мамонов, Антон Афанасьев, Денис Ткачёв, Юрий Гумиров, Николай Перминов, Антон Батырев, Олег Новиков (IV), Александр Журман, Георгий Мартиросян, Алексей Захаров, Павел Басов, Екатерина Альбрандт...
Полный список актёров
Описание:
Без сна человеческий организм не может существовать бесконечно.
В одном из подпольных казино, больше похожем на тайный клуб, играют только самые богатые, самые влиятельные и… самые пресыщенные. Те, кто готов ставить целые состояния на красное, если это красное – кровь. Для них и был создан новый тотализатор, основанный на игре «Бессонница», который проводится всего раз в год. Клиенты казино, делая свои ставки, рискуют миллионами, но игроки рискуют гораздо большим.
Из 10 игроков последний не заснувший и оставшийся в живых – победитель. И нельзя сказать, что участие в игре – дело полностью добровольное.- -Исходник: WEB-DL 1080i
Качество видео: WEB-DLRip-AVC
Формат видео: MKV
Видео: 1024х576 (16:9), 25 fps, H264 ~ 2420 kbps avg, 0.164 bit/pixel
Аудио: 48 kHz, Dolby Digital AC3 2.0, 192 kbps

MediaInfo

Общее
Полное имя : Bessonnitsa.2013.WEB-DLRip-AVC_[New-team]_by_AVP_Studio3.mkv
Формат : Matroska
Версия формата : Version 2
Размер файла : 831 Мбайт
Продолжительность : 44 м.
Общий поток : 2613 Кбит/сек
Дата кодирования : UTC 2015-11-09 23:00:45
Программа кодирования : mkvmerge v6.1.0 ('Old Devil') built on Mar 4 2013 09:10:42
Библиотека кодирования : libebml v1.3.0 + libmatroska v1.4.0
Видео
Идентификатор : 1
Формат : AVC
Формат/Информация : Advanced Video Codec
Профиль формата : High@L4.1
Параметр CABAC формата : Да
Параметр ReFrames формата : 10 кадров
Идентификатор кодека : V_MPEG4/ISO/AVC
Продолжительность : 44 м.
Битрейт : 2420 Кбит/сек
Ширина : 1024 пикселя
Высота : 576 пикселей
Соотношение сторон : 16:9
Режим частоты кадров : Постоянный
Частота кадров : 25,000 кадров/сек
Цветовое пространство : YUV
Субдискретизация насыщенности : 4:2:0
Битовая глубина : 8 бит
Тип развёртки : Прогрессивная
Бит/(Пиксели*Кадры) : 0.164
Размер потока : 753 Мбайт (91%)
Библиотека кодирования : x264 core 148 r2597 e86f3a1
Настройки программы : cabac=1 / ref=10 / deblock=1:-2:-1 / analyse=0x3:0x113 / me=umh / subme=10 / psy=1 / psy_rd=1.00:0.00 / mixed_ref=1 / me_range=32 / chroma_me=1 / trellis=2 / 8x8dct=1 / cqm=0 / deadzone=21,11 / fast_pskip=1 / chroma_qp_offset=-2 / threads=6 / lookahead_threads=1 / sliced_threads=0 / nr=0 / decimate=0 / interlaced=0 / bluray_compat=0 / constrained_intra=0 / bframes=8 / b_pyramid=2 / b_adapt=2 / b_bias=0 / direct=3 / weightb=1 / open_gop=0 / weightp=2 / keyint=250 / keyint_min=25 / scenecut=40 / intra_refresh=0 / rc=2pass / mbtree=0 / bitrate=2420 / ratetol=1.0 / qcomp=0.60 / qpmin=0 / qpmax=69 / qpstep=4 / cplxblur=20.0 / qblur=0.5 / ip_ratio=1.40 / pb_ratio=1.30 / aq=1:1.00
Default : Да
Forced : Нет
Аудио
Идентификатор : 2
Формат : AC-3
Формат/Информация : Audio Coding 3
Расширение режима : CM (complete main)
Параметр Endianness формата : Big
Идентификатор кодека : A_AC3
Продолжительность : 44 м.
Вид битрейта : Постоянный
Битрейт : 192 Кбит/сек
Каналы : 2 канала
Расположение каналов : Front: L R
Частота : 48,0 КГц
Метод сжатия : С потерями
Размер потока : 61,0 Мбайт (7%)
Default : Да
Forced : Нет

Скриншоты

[Профиль] [ЛС]
Показать сообщения:    

Текущее время: Сегодня 07:25

Часовой пояс: GMT



Вы не можете начинать темы
Вы не можете отвечать на сообщения
Вы не можете редактировать свои сообщения
Вы не можете удалять свои сообщения
Вы не можете голосовать в опросах
Вы не можете прикреплять файлы к сообщениям
Вы не можете скачивать файлы