Бессмертные / The Immortals (1995) DVDRip-AVC | P, P2, A

 
Автор Сообщение

Russian Mafia ®

Пол:

Стаж: 1 год 8 месяцев

Сообщений: 4253



Награды: 10 (Подробнее)

Top Releaser 2 (Количество: 1) Mega Seeder 4 (Количество: 1) Mega Seeder 5 (Количество: 1)
Торрент-статистика

Создавать темы 20-Мар-2016 20:12

[Цитировать]

Название: Бессмертные
Оригинальное название: The Immortals
Год выхода: 1995
Страна: США
Студия: End Productions, Mondofin B.V., Nu Image / Millennium Films
Продолжительность: 01:33:33
Жанр: боевик, триллер, драма, криминал, ...
Режиссер: Брайан Грант
В ролях: Эрик Робертс, Джо Пантолиано, Тиа Каррере, Тони Кёртис, Кларенс Уильямс III, Уильям Форсайт, Крис Рок, Кевин Бернхардт, Киран Малруни, Брайан Финни, ...
Перевод:
Профессиональный (двухголосый, закадровый)
Профессиональный (многоголосный, закадровый) НТВ (Борис Быстров, Алексей Инжеватов и др.)
Авторский (одноголосый, закадровый) Гаврилов Андрей Юрьевич
Субтитры
О фильме: Управляющий ночным клубом задумал ограбить одновременно несколько заведений, принадлежащих его боссу. Для этого он собирает команду из восьми матерых уголовников. Но их объединяет не столько криминальное прошлое, сколько их короткое будущее… Все они смертельно больны! Как известно те, кому нечего терять, способны на большее, нежели те, у кого впереди долгая и счастливая жизнь…

Кодек: x264
Качество: DVDRip-AVC
Видео: 768x576 , 3500 kbps, 25 fps
Аудио #01: AC-3, 6 ch, 384 kbps (Rus) - DVO
Аудио #02: AC-3, 2 ch, 192 kbps (Rus) - MVO НТВ (Борис Быстров, Алексей Инжеватов и др.)
Аудио #03: AC-3, 2 ch, 192 kbps (Rus) - AVO Гаврилов Андрей Юрьевич
Аудио #04: AC-3, 6 ch, 384 kbps (Eng)
Субтитры: Русские (VobSub)

Дополнительная информация

За исходник и разнообразие звука спасибо - Pupo11, micky321, JIuI3epIIyJIb, JUSTKANT, Haos-22

MediaInfo

x264 [info]: frame I:1324 Avg QP:15.04 size: 63313
x264 [info]: frame P:27454 Avg QP:17.28 size: 31889
x264 [info]: frame B:111560 Avg QP:19.19 size: 13407
x264 [info]: consecutive B-frames: 1.6% 1.6% 6.3% 11.8% 14.9% 48.2% 9.9% 2.0% 1.6% 0.9% 0.5% 0.6% 0.2%
Общее
Уникальный идентификатор : 206786881299268567898757781133426200758 (0x9B91B465E9C33282A0638800108490B6)
Полное имя : Бессмертные (The Immortals) 1995 DVDRip.mkv
Формат : Matroska
Версия формата : Version 2
Размер файла : 3,04 Гбайт
Продолжительность : 1 ч. 33 м.
Общий поток : 4651 Кбит/сек
Дата кодирования : UTC 2016-03-20 18:47:51
Программа кодирования : mkvmerge v4.0.0 ('The Stars were mine') сборка от Jun 6 2010 16:18:42
Библиотека кодирования : libebml v1.0.0 + libmatroska v1.0.0
Видео
Идентификатор : 1
Формат : AVC
Формат/Информация : Advanced Video Codec
Профиль формата : High@L4.1
Параметр CABAC формата : Да
Параметр ReFrames формата : 12 кадров
Идентификатор кодека : V_MPEG4/ISO/AVC
Продолжительность : 1 ч. 33 м.
Битрейт : 3500 Кбит/сек
Ширина : 768 пикселей
Высота : 576 пикселей
Соотношение сторон : 4:3
Режим частоты кадров : Постоянный
Частота кадров : 25,000 кадров/сек
Цветовое пространство : YUV
Субдискретизация насыщенности : 4:2:0
Битовая глубина : 8 бит
Тип развёртки : Прогрессивная
Бит/(Пиксели*Кадры) : 0.316
Размер потока : 2,23 Гбайт (73%)
Библиотека кодирования : x264 core 146 r2538 121396c
Настройки программы : cabac=1 / ref=12 / deblock=1:-3:-3 / analyse=0x3:0x133 / me=umh / subme=11 / psy=1 / psy_rd=1.00:0.00 / mixed_ref=1 / me_range=32 / chroma_me=1 / trellis=2 / 8x8dct=1 / cqm=0 / deadzone=21,11 / fast_pskip=0 / chroma_qp_offset=-2 / threads=12 / lookahead_threads=2 / sliced_threads=0 / nr=0 / decimate=0 / interlaced=0 / bluray_compat=0 / constrained_intra=0 / bframes=12 / b_pyramid=2 / b_adapt=2 / b_bias=0 / direct=3 / weightb=1 / open_gop=0 / weightp=2 / keyint=250 / keyint_min=25 / scenecut=40 / intra_refresh=0 / rc=2pass / mbtree=0 / bitrate=3500 / ratetol=1.0 / qcomp=0.60 / qpmin=0 / qpmax=69 / qpstep=4 / cplxblur=20.0 / qblur=0.5 / ip_ratio=1.40 / pb_ratio=1.30 / aq=1:0.80
Язык : English
Default : Нет
Forced : Нет
Аудио #1
Идентификатор : 2
Формат : AC-3
Формат/Информация : Audio Coding 3
Расширение режима : CM (complete main)
Параметр Endianness формата : Big
Идентификатор кодека : A_AC3
Продолжительность : 1 ч. 33 м.
Вид битрейта : Постоянный
Битрейт : 384 Кбит/сек
Каналы : 6 каналов
Расположение каналов : Front: L C R, Side: L R, LFE
Частота : 48,0 КГц
Метод сжатия : С потерями
Размер потока : 257 Мбайт (8%)
Заголовок : MVO
Язык : Russian
Default : Нет
Forced : Нет
Аудио #2
Идентификатор : 3
Формат : AC-3
Формат/Информация : Audio Coding 3
Расширение режима : CM (complete main)
Параметр Endianness формата : Big
Идентификатор кодека : A_AC3
Продолжительность : 1 ч. 33 м.
Вид битрейта : Постоянный
Битрейт : 192 Кбит/сек
Каналы : 2 канала
Расположение каналов : Front: L R
Частота : 48,0 КГц
Метод сжатия : С потерями
Размер потока : 128 Мбайт (4%)
Заголовок : MVO НТВ (Борис Быстров, Алексей Инжеватов и др.)
Язык : Russian
Default : Нет
Forced : Нет
Аудио #3
Идентификатор : 4
Формат : AC-3
Формат/Информация : Audio Coding 3
Расширение режима : CM (complete main)
Параметр Endianness формата : Big
Идентификатор кодека : A_AC3
Продолжительность : 1 ч. 33 м.
Вид битрейта : Постоянный
Битрейт : 192 Кбит/сек
Каналы : 2 канала
Расположение каналов : Front: L R
Частота : 48,0 КГц
Метод сжатия : С потерями
Размер потока : 128 Мбайт (4%)
Заголовок : AVO Гаврилов Андрей Юрьевич
Язык : Russian
Default : Нет
Forced : Нет
Аудио #4
Идентификатор : 5
Формат : AC-3
Формат/Информация : Audio Coding 3
Расширение режима : CM (complete main)
Параметр Endianness формата : Big
Идентификатор кодека : A_AC3
Продолжительность : 1 ч. 33 м.
Вид битрейта : Постоянный
Битрейт : 384 Кбит/сек
Каналы : 6 каналов
Расположение каналов : Front: L C R, Side: L R, LFE
Частота : 48,0 КГц
Метод сжатия : С потерями
Размер потока : 257 Мбайт (8%)
Язык : English
Default : Нет
Forced : Нет
Текст
Идентификатор : 6
Формат : VobSub
Режим смешивания : zlib
Идентификатор кодека : S_VOBSUB
Идентификатор кодека/Информация : Picture based subtitle format used on DVDs
Язык : Russian
Default : Нет
Forced : Нет

Скриншоты


[Профиль] [ЛС]
Кто просматривает тему:

Форум Тема Автор Размер
Фильмы 2010 года 22 пули: Бессмертный / 22 Bullets: L'immortel (Ришар Берри) [2010 г., Боевик, драма, криминал, HDRip] DUB BOSS 1.45 GB
BBC BBC: Horizon. В поисках бессмертия / Horizon. The Immortalist (Tristan Quinn) [2016 г., Документальный, научно-познавательный, HDTVRip-AVC 720p] skorpionN 1.52 GB
BBC BBC: Бессмертный Египет с Джоанн Флетчер (История Египта) / Immortal Egypt with Joann Fletcher (The Story of Egypt) [серии 1-4 из 4] (Ian A. Hunt) [2015 г., Документальный, история, исследования,... skorpionN 7.22 GB
История, биографии, религия и искусство Cовременная проза, мемуары - Пир бессмертных 03. Пучина [Бухмин Аркадий, 2015] Magnat 279 MB
Приключения, Квесты, Логические Бессмертная любовь: Письмо из прошлого / Immortal Love: Letter From The Past CE (2015) РС достали все 1.01 GB
Зарубежные сериалы Бессмертник [01х01-13 из 24] (2015) SATRip sergej644 6.99 GB
Отечественные cериалы Бессмертник. Рай там, где ты [S04] (2015) SATRip от Files-x достали все 13.97 GB
Фильмы 2011 года Бессмертные / The Immortals (1995) DVDRip BOSS 1.37 GB
Показать сообщения:    

Текущее время: Сегодня 12:49

Часовой пояс: GMT



Вы не можете начинать темы
Вы не можете отвечать на сообщения
Вы не можете редактировать свои сообщения
Вы не можете удалять свои сообщения
Вы не можете голосовать в опросах
Вы не можете прикреплять файлы к сообщениям
Вы не можете скачивать файлы