Бессмертные: Война миров / Immortel (ad vitam) (2004) BDRip 1080p

 
Автор Сообщение

Russian Mafia ®

Пол:

Стаж: 1 год 8 месяцев

Сообщений: 4257



Награды: 10 (Подробнее)

Top Releaser 4 (Количество: 1) Top Releaser 3 (Количество: 1) Mega Seeder 4 (Количество: 1)
Торрент-статистика

Создавать темы 27-Авг-2016 16:39

[Цитировать]

Информация о фильме
Название: Бессмертные: Война миров
Оригинальное название: Immortel (ad vitam)
Год выхода: 2004
Жанр: фантастика, фэнтези, мелодрама, криминал
Режиссер: Энки Билал
В ролях: Линда Харди, Томас Кречманн, Шарлотта Рэмплинг, Янн Коллетт, Фредерик Пьеро, Томас М. Поллард, Джо Шеридан, Коринн Жабер, Оливье Ашар, Джерри Ди Джакомо
О фильме: 2095 год. Над трехуровневым Нью-Йорком парит пирамида бессмертных богов, зловещая корпорация «Евгеника» похищает людей для своих тайных экспериментов, а в мрачных закоулках рыщет серийный убийца, про которого известно лишь то, что он — нечеловек.
Здесь Джилл, загадочную женщину с синими волосами и синими слезами, ждет встреча с древним богом Гором, приговоренным другими богами к смерти. У него есть всего семь дней, чтобы найти человеческую оболочку и соблазнить Джилл, обладающую таинственным даром и способную спасти обреченное божество.
Единственный выбор Гора — тело замороженного 30 лет назад бунтаря Никопола, которому известны страшные тайны Нью-Йорка будущего…

Выпущено: Telema
Продолжительность: 01:43:08
Перевод: Дублированный
Файл
Кодек: x264
Качество: BDRip (источник: Blu-ray Disc)
Видео: 1920x1056 (16:9), 24 fps, 9069 kbps
Аудио #1: 48 kHz, AC-3, 6 ch, 448 kbps (Rus)
Аудио #2: 48 kHz, DTS, 6 ch, 1510 kbps (Eng)
Субтитры: Русские, Английские
Скачать: сэмпл
Скриншоты

MI

Общее
Уникальный идентификатор : 204462466825190595266707123483272253525 (0x99D209EA9D744198B1846C79C28F9055)
Полное имя : Immortel.Ad.Vitam.2004.BDRip.1080p.Rus.Eng.mkv
Формат : Matroska
Версия формата : Version 2
Размер файла : 7,94 Гбайт
Продолжительность : 1 ч. 43 м.
Общий поток : 11,0 Мбит/сек
Название фильма : Бессмертные: Война миров / Immortel (ad vitam) (2004)
Дата кодирования : UTC 2011-12-29 09:01:02
Программа кодирования : mkvmerge v4.0.0 ('The Stars were mine') сборка от Jun 6 2010 16:18:42
Библиотека кодирования : libebml v1.0.0 + libmatroska v1.0.0
Видео
Идентификатор : 1
Формат : AVC
Формат/Информация : Advanced Video Codec
Профиль формата : High@L4.1
Параметр CABAC формата : Да
Параметр ReFrames формата : 4 кадра
Идентификатор кодека : V_MPEG4/ISO/AVC
Продолжительность : 1 ч. 43 м.
Битрейт : 9069 Кбит/сек
Ширина : 1920 пикселей
Высота : 1056 пикселей
Соотношение сторон : 16:9
Частота кадров : 24,000 кадра/сек
Цветовое пространство : YUV
Субдискретизация насыщенности : 4:2:0
Битовая глубина : 8 бит
Тип развёртки : Прогрессивная
Бит/(Пиксели*Кадры) : 0.186
Размер потока : 6,37 Гбайт (80%)
Заголовок : Release by AlexKa
Библиотека кодирования : x264 core 120 r2120 0c7dab9
Настройки программы : cabac=1 / ref=4 / deblock=1:-3:-3 / analyse=0x3:0x133 / me=umh / subme=10 / psy=1 / psy_rd=1.00:0.10 / mixed_ref=1 / me_range=32 / chroma_me=1 / trellis=2 / 8x8dct=1 / cqm=0 / deadzone=21,11 / fast_pskip=0 / chroma_qp_offset=-3 / threads=12 / sliced_threads=0 / nr=0 / decimate=0 / interlaced=0 / bluray_compat=0 / constrained_intra=0 / bframes=3 / b_pyramid=2 / b_adapt=2 / b_bias=0 / direct=3 / weightb=1 / open_gop=0 / weightp=2 / keyint=240 / keyint_min=24 / scenecut=40 / intra_refresh=0 / rc_lookahead=60 / rc=2pass / mbtree=1 / bitrate=9069 / ratetol=1.0 / qcomp=0.60 / qpmin=0 / qpmax=69 / qpstep=4 / cplxblur=20.0 / qblur=0.5 / ip_ratio=1.40 / aq=1:1.00
Язык : English
Аудио #1
Идентификатор : 2
Формат : AC-3
Формат/Информация : Audio Coding 3
Расширение режима : CM (complete main)
Идентификатор кодека : A_AC3
Продолжительность : 1 ч. 43 м.
Вид битрейта : Постоянный
Битрейт : 448 Кбит/сек
Каналы : 6 каналов
Расположение каналов : Front: L C R, Side: L R, LFE
Частота : 48,0 КГц
Битовая глубина : 16 бит
Метод сжатия : С потерями
Размер потока : 330 Мбайт (4%)
Язык : Russian
Аудио #2
Идентификатор : 3
Формат : DTS
Формат/Информация : Digital Theater Systems
Профиль формата : ES
Идентификатор кодека : A_DTS
Продолжительность : 1 ч. 43 м.
Вид битрейта : Постоянный
Битрейт : 1510 Кбит/сек
Каналы : 6 каналов
Расположение каналов : Front: L C R, Side: L R, LFE
Частота : 48,0 КГц
Битовая глубина : 24 бит
Метод сжатия : С потерями
Размер потока : 1,09 Гбайт (14%)
Язык : English
Текст #1
Идентификатор : 4
Формат : UTF-8
Идентификатор кодека : S_TEXT/UTF8
Идентификатор кодека/Информация : UTF-8 Plain Text
Язык : Russian
Текст #2
Идентификатор : 5
Формат : UTF-8
Идентификатор кодека : S_TEXT/UTF8
Идентификатор кодека/Информация : UTF-8 Plain Text
Язык : English
Меню
00:00:00.000 : :Chapter 01
00:10:03.041 : :Chapter 02
00:17:23.625 : :Chapter 03
00:24:40.250 : :Chapter 04
00:35:09.916 : :Chapter 05
00:42:43.208 : :Chapter 06
00:52:25.666 : :Chapter 07
00:59:49.750 : :Chapter 08
01:06:33.916 : :Chapter 09
01:14:56.125 : :Chapter 10
01:24:50.083 : :Chapter 11
01:33:40.041 : :Chapter 12
01:36:56.333 : :Chapter 13

x264

x264 [info]: frame I:1224 Avg QP:16.99 size:167481
x264 [info]: frame P:42848 Avg QP:19.98 size: 71698
x264 [info]: frame B:104441 Avg QP:21.90 size: 35757
[Профиль] [ЛС]
Кто просматривает тему:

Форум Тема Автор Размер
Фильмы 2010 года 22 пули: Бессмертный / 22 Bullets: L'immortel (Ришар Берри) [2010 г., Боевик, драма, криминал, HDRip] DUB BOSS 1.45 GB
BBC BBC: Horizon. В поисках бессмертия / Horizon. The Immortalist (Tristan Quinn) [2016 г., Документальный, научно-познавательный, HDTVRip-AVC 720p] skorpionN 1.52 GB
BBC BBC: Бессмертный Египет с Джоанн Флетчер (История Египта) / Immortal Egypt with Joann Fletcher (The Story of Egypt) [серии 1-4 из 4] (Ian A. Hunt) [2015 г., Документальный, история, исследования,... skorpionN 7.22 GB
История, биографии, религия и искусство Cовременная проза, мемуары - Пир бессмертных 03. Пучина [Бухмин Аркадий, 2015] Magnat 279 MB
Приключения, Квесты, Логические Бессмертная любовь: Письмо из прошлого / Immortal Love: Letter From The Past CE (2015) РС достали все 1.01 GB
Зарубежные сериалы Бессмертник [01х01-13 из 24] (2015) SATRip sergej644 6.99 GB
Отечественные cериалы Бессмертник. Рай там, где ты [S04] (2015) SATRip от Files-x достали все 13.97 GB
Фильмы 2011 года Бессмертные / The Immortals (1995) DVDRip BOSS 1.37 GB
Показать сообщения:    

Текущее время: Сегодня 10:14

Часовой пояс: GMT



Вы не можете начинать темы
Вы не можете отвечать на сообщения
Вы не можете редактировать свои сообщения
Вы не можете удалять свои сообщения
Вы не можете голосовать в опросах
Вы не можете прикреплять файлы к сообщениям
Вы не можете скачивать файлы