Бесславные ублюдки / Inglourious Basterds (2009) BDRip 720p | D, A

 
Автор Сообщение

Russian Mafia ®

Пол:

Стаж: 1 год 8 месяцев

Сообщений: 4257



Награды: 10 (Подробнее)

Top Releaser 2 (Количество: 1) Top Releaser 5 (Количество: 1) За внесенный вклад в развитие сайта (Количество: 1)
Торрент-статистика

Создавать темы 22-Мар-2016 16:17

[Цитировать]

--Бесславные Ублюдки-- Год выпуска: 2009
Страна: США
Жанр: боевик, комедия, военный
Продолжительность: 02:32:52
Перевод: Дублированный (со вставками на не переведенную речь), одноголосный (М. Чадов & Ю. Сербин)-Режиссер: Квентин Тарантино
В ролях: Брэд Питт, Диана Крюгер, Тиль Швайгер, Илай Рот, Сэмюэл Л. Джексон, Майк Майерс, Мэгги Чун, Михаэль Фассбендер, Джули Дрейфус, Мелани Лоран, Кристоф Вальц, Даниэль Брюль, Сэмм Ливайн, Би. Джей Новак, Майкл Бэколл, Кристиан Беркель, Энцо Дж. Кастеллари, Аугуст Диль, Кен Дукен, Сильвестр Грот, Клорис Личман, Яна Палласке, Людгер Пистор, Ришар Саммель, Род Тэйлор, Мартин Вуттке.-Описание: Действие картины разворачивается в оккупированной Франции. На глазах у Сюзанны Дрейфус от рук немецкого полковника Ганса Ланда погибает ее семья. Девушке чудом удается спастиcь и бежать в Париж. Там она устраивается на работу в кинотеатр.
В это же время где-то в Европе лейтенант Альдо Рэйн (Брэд Питт) собирает группу еврейских солдат, именующих себя «Ублюдками». К ним примыкает тайный агент Бриджет фон Хаммерсмарк, выдающая себя за актрису. Группа заброшена во Францию, где наводит страх на нацистов, жестоко убивая и скальпируя солдат. Обе сюжетные линии пересекаются, когда диверсанты встречаются в кинотеатре с Сюзанной, мечтающей отомстить обидчикам.

Качество видео: BDRip 720
Видео: AVC, 1280x528, 23.976 fps, 3704 kbps
Аудио #1: AC3, 6 ch, 384 Kbps (Дубляж & Многоголосный);
Аудио #2: AC3, 6 ch, 448 kbps (М. Чадов);
Аудио #3: AC3, 6 ch, 448 kbps (Ю. Сербин);
Субтитры: | Русские | Форсированные |

Знаете ли вы, что...

1. До встречи с Дайан Крюгер Квентин Тарантино видел только голливудские фильмы с её участием и был уверен, что она американка. Однако на первом же прослушивании Дайан не составило труда убедить Квентина, что немецкий — её родной язык.
2. Одно из имен, вырезанных на бите Жида-Медведя, — Анна Франк.
3. На вопрос о грамматической ошибке в названии фильма Квентин Тарантино ответил, что он никогда не раскроет секрета, почему была допущена такая ошибка, и что она означает.
4. Квентин Тарантино начал писать сценарий еще до «Убить Билла» (2003), однако он не мог придумать достойную концовку, поэтому решил отложить проект и заняться «Биллом».
5. Тарантино работал над сценарием около 10 лет.
6. Дэвид Крамхолц выбыл из проекта из-за контрактных обязательств на других фильмах.
7. Изначально Саймон Пегг должен был сыграть Арчи Хикокса.
8. Роль сержанта Донни Доновитца была предложена Адаму Сэндлеру, однако ему пришлось отказаться из-за занятости на других проектах.
9. Роль Франчески Мондино была специально написана для Джули Дрейфус.
10. Роль Бриджет фон Хаммерсмарк была предложена Настасье Кински.
11. Имя персонажа Брэда Питта, Альдо Райне, — это дань уважения актеру Альдо Рэю.
12. Изначально Изабель Юппер должна была сыграть Мадам Мими.
13. В свое время Майкл Мэдсен получил предложение сыграть персонажа по имени Бэйб Бачински.
14. Роль Донни Доновитца была предложена Тиму Роту.
15. Изначально Тарантино хотел, чтобы Леонардо ДиКаприо сыграл Ханса Лэнда, однако позже решил, что немецко-говорящий актер лучше подойдет на эту роль.
16. По словам Эдди Мёрфи, он вел переговоры с Тарантино о роли в фильме.

Скриншоты

MediaInfo

Видео
Идентификатор : 1
Формат : AVC
Формат/Информация : Advanced Video Codec
Профиль формата : High@L3.1
Параметр CABAC формата : Да
Параметр ReFrames формата : 4 кадра
Идентификатор кодека : V_MPEG4/ISO/AVC
Продолжительность : 2 ч. 32 м.
Битрейт : 3704 Кбит/сек
Ширина : 1280 пикселей
Высота : 528 пикселей
Соотношение сторон : 2,40:1
Соотношение сторон в оригинале : 2,40:1
Режим частоты кадров : Постоянный
Частота кадров : 23,976 (24000/1001) кадра/сек
Цветовое пространство : YUV
Субдискретизация насыщенности : 4:2:0
Битовая глубина : 8 бит
Тип развёртки : Прогрессивная
Бит/(Пиксели*Кадры) : 0.229
Размер потока : 3,96 Гбайт (74%)
Заголовок : Бесславные ублюдки
Библиотека кодирования : x264 core 128 r2216 198a7ea
Настройки программы : cabac=1 / ref=4 / deblock=1:0:0 / analyse=0x3:0x133 / me=hex / subme=7 / psy=1 / psy_rd=1.00:0.00 / mixed_ref=1 / me_range=16 / chroma_me=1 / trellis=1 / 8x8dct=1 / cqm=0 / deadzone=21,11 / fast_pskip=1 / chroma_qp_offset=-2 / threads=12 / lookahead_threads=2 / sliced_threads=0 / nr=0 / decimate=1 / interlaced=0 / bluray_compat=0 / constrained_intra=0 / bframes=3 / b_pyramid=2 / b_adapt=1 / b_bias=0 / direct=1 / weightb=1 / open_gop=0 / weightp=2 / keyint=240 / keyint_min=23 / scenecut=40 / intra_refresh=0 / rc_lookahead=40 / rc=2pass / mbtree=1 / bitrate=3704 / ratetol=1.0 / qcomp=0.60 / qpmin=10 / qpmax=51 / qpstep=4 / cplxblur=20.0 / qblur=0.5 / ip_ratio=1.40 / aq=1:1.00
Язык : English
Default : Да
Forced : Нет
Аудио #1
Идентификатор : 2
Формат : AC-3
Формат/Информация : Audio Coding 3
Расширение режима : CM (complete main)
Параметр Endianness формата : Big
Идентификатор кодека : A_AC3
Продолжительность : 2 ч. 32 м.
Вид битрейта : Постоянный
Битрейт : 384 Кбит/сек
Каналы : 6 каналов
Расположение каналов : Front: L C R, Side: L R, LFE
Частота : 48,0 КГц
Частота кадров : 31,250 кадров/сек (1536 spf)
Метод сжатия : С потерями
Размер потока : 420 Мбайт (8%)
Заголовок : Профессиональный (полное дублирование) +
Язык : Russian
Default : Да
Forced : Нет
Аудио #2
Идентификатор : 3
Формат : AC-3
Формат/Информация : Audio Coding 3
Расширение режима : CM (complete main)
Параметр Endianness формата : Big
Идентификатор кодека : A_AC3
Продолжительность : 2 ч. 32 м.
Вид битрейта : Постоянный
Битрейт : 448 Кбит/сек
Каналы : 6 каналов
Расположение каналов : Front: L C R, Side: L R, LFE
Частота : 48,0 КГц
Частота кадров : 31,250 кадров/сек (1536 spf)
Метод сжатия : С потерями
Размер потока : 489 Мбайт (9%)
Заголовок : VO (М. Чадов, по переводу Goblin'a)
Язык : Russian
Default : Нет
Forced : Нет
Аудио #3
Идентификатор : 4
Формат : AC-3
Формат/Информация : Audio Coding 3
Расширение режима : CM (complete main)
Параметр Endianness формата : Big
Идентификатор кодека : A_AC3
Продолжительность : 2 ч. 32 м.
Вид битрейта : Постоянный
Битрейт : 448 Кбит/сек
Каналы : 6 каналов
Расположение каналов : Front: L C R, Side: L R, LFE
Частота : 48,0 КГц
Частота кадров : 31,250 кадров/сек (1536 spf)
Метод сжатия : С потерями
Размер потока : 490 Мбайт (9%)
Заголовок : AVO (Ю. Сербин)
Язык : Russian
Default : Нет
Forced : Нет
Текст #1
Идентификатор : 5
Формат : UTF-8
Идентификатор кодека : S_TEXT/UTF8
Идентификатор кодека/Информация : UTF-8 Plain Text
Продолжительность : 2 ч. 2 м.
Битрейт : 11 бит/сек
Count of elements : 203
Размер потока : 10,1 Кбайт (0%)
Заголовок : Forced (для дубляжа)
Язык : Russian
Default : Нет
Forced : Нет
Текст #2
Идентификатор : 6
Формат : UTF-8
Идентификатор кодека : S_TEXT/UTF8
Идентификатор кодека/Информация : UTF-8 Plain Text
Продолжительность : 2 ч. 29 м.
Битрейт : 95 бит/сек
Count of elements : 1862
Размер потока : 105 Кбайт (0%)
Заголовок : Full Goblin
Язык : Russian
Default : Нет
Forced : Нет
Текст #3
Идентификатор : 7
Формат : UTF-8
Идентификатор кодека : S_TEXT/UTF8
Идентификатор кодека/Информация : UTF-8 Plain Text
Продолжительность : 2 ч. 28 м.
Битрейт : 109 бит/сек
Count of elements : 1817
Размер потока : 119 Кбайт (0%)
Заголовок : Full Voronine
Язык : Russian
Default : Нет
Forced : Нет
[Профиль] [ЛС]
Кто просматривает тему:

Показать сообщения:    

Текущее время: Сегодня 00:20

Часовой пояс: GMT



Вы не можете начинать темы
Вы не можете отвечать на сообщения
Вы не можете редактировать свои сообщения
Вы не можете удалять свои сообщения
Вы не можете голосовать в опросах
Вы не можете прикреплять файлы к сообщениям
Вы не можете скачивать файлы