Бесси / Bessie (2015) BDRip 1080p | P

 
Автор Сообщение

достали все ®

Пол:

Стаж: 1 год 8 месяцев

Сообщений: 6613



Награды: 12 (Подробнее)

Mega Seeder 4 (Количество: 1) Mega Releaser 1 (Количество: 1) Mega Seeder 5 (Количество: 1)
Торрент-статистика

Создавать темы 24-Авг-2015 15:28

[Цитировать]

Название: Бесси
Оригинальное название: Bessie
Год выпуска: 2015
Жанр: Драма, музыка, биография
Выпущено: США, Flavor Unit Entertainment, HBO Films, Zanuck Company
Режиссер: Ди Риис
В ролях: Куин Латифа, Майкл Кеннет Уильямс, Брайан Гринберг, Тика Самптер, Оливер Плэтт, Ханди Александер, Майк Эппс, Моник, Чарльз С. Даттон, Тори Киттлз
О фильме: Неподражаемая Куин Латифа в новом фильме НВО о жизни и карьере Бесси Смит - легендарного блюз исполнителя, которая поднялась к вершине славы в 1920-х и 30-х годах ХХ века. Фильм основан на реальных событиях.

Качество: BDRip 1080p
Видео: MPEG-4 AVC, 8643 Кбит/с, 1920x1080
Аудио: Русский (AC3, 2 ch, 192 Кбит/с), английский (DTS, 6 ch, 1510 Кбит/с)
Продолжительность: 01:51:16
Озвучивание: Профессиональное (многоголосое) [Amedia]

Скриншоты

MediaInfo

Полное имя : Bessie.2015.BDRip.1080p.mkv
Формат : Matroska
Версия формата : Version 4 / Version 2
Размер файла : 8,09 Гбайт
Продолжительность : 1 ч. 51 м.
Общий поток : 10,3 Мбит/сек
Название фильма : -=REGIS1975=-Bessie-=NewGoliaf=-
Дата кодирования : UTC 2015-08-23 14:16:21
Программа кодирования : mkvmerge v7.9.0 ('Birds') 64bit
Библиотека кодирования : libebml v1.3.1 + libmatroska v1.4.2
DURATION : 01:51:59.200000000
NUMBER_OF_FRAMES : 209975
NUMBER_OF_BYTES : 161260800
_STATISTICS_WRITING_APP : mkvmerge v7.9.0 ('Birds') 64bit
_STATISTICS_WRITING_DATE_UTC : 2015-08-23 14:16:21
_STATISTICS_TAGS : BPS DURATION NUMBER_OF_FRAMES NUMBER_OF_BYTES
Видео
Идентификатор : 1
Формат : AVC
Формат/Информация : Advanced Video Codec
Профиль формата : High@L4.1
Параметр CABAC формата : Да
Параметр ReFrames формата : 4 кадра
Идентификатор кодека : V_MPEG4/ISO/AVC
Продолжительность : 1 ч. 51 м.
Битрейт : 8643 Кбит/сек
Ширина : 1920 пикселей
Высота : 1080 пикселей
Соотношение сторон : 16:9
Режим частоты кадров : Постоянный
Частота кадров : 23,976 кадра/сек
Цветовое пространство : YUV
Субдискретизация насыщенности : 4:2:0
Битовая глубина : 8 бит
Тип развёртки : Прогрессивная
Бит/(Пиксели*Кадры) : 0.174
Размер потока : 6,60 Гбайт (82%)
Заголовок : http://newgoliaf.com/
Библиотека кодирования : x264 core 148 r2579 73ae2d1
Настройки программы : cabac=1 / ref=4 / deblock=1:0:0 / analyse=0x3:0x133 / me=umh / subme=7 / psy=1 / psy_rd=1.00:0.00 / mixed_ref=1 / me_range=16 / chroma_me=1 / trellis=1 / 8x8dct=1 / cqm=0 / deadzone=21,11 / fast_pskip=0 / chroma_qp_offset=-2 / threads=12 / lookahead_threads=2 / sliced_threads=0 / nr=0 / decimate=1 / interlaced=0 / bluray_compat=0 / constrained_intra=0 / bframes=3 / b_pyramid=2 / b_adapt=1 / b_bias=0 / direct=1 / weightb=1 / open_gop=0 / weightp=2 / keyint=250 / keyint_min=23 / scenecut=40 / intra_refresh=0 / rc_lookahead=40 / rc=2pass / mbtree=1 / bitrate=8643 / ratetol=1.0 / qcomp=0.60 / qpmin=0 / qpmax=69 / qpstep=4 / cplxblur=20.0 / qblur=0.5 / ip_ratio=1.40 / aq=1:1.00
Язык : English
Default : Да
Forced : Нет
DURATION : 01:51:59.224000000
NUMBER_OF_FRAMES : 161100
NUMBER_OF_BYTES : 7256472536
_STATISTICS_WRITING_APP : mkvmerge v7.9.0 ('Birds') 64bit
_STATISTICS_WRITING_DATE_UTC : 2015-08-23 14:16:21
_STATISTICS_TAGS : BPS DURATION NUMBER_OF_FRAMES NUMBER_OF_BYTES
Аудио #1
Идентификатор : 2
Формат : AC-3
Формат/Информация : Audio Coding 3
Расширение режима : CM (complete main)
Параметр Endianness формата : Big
Идентификатор кодека : A_AC3
Продолжительность : 1 ч. 51 м.
Вид битрейта : Постоянный
Битрейт : 192 Кбит/сек
Каналы : 2 канала
Расположение каналов : Front: L R
Частота : 48,0 КГц
Битовая глубина : 16 бит
Метод сжатия : С потерями
Размер потока : 154 Мбайт (2%)
Заголовок : Amedia
Язык : Russian
Default : Нет
Forced : Нет
Аудио #2
Идентификатор : 3
Формат : DTS
Формат/Информация : Digital Theater Systems
Режим : 16
Параметр Endianness формата : Big
Идентификатор кодека : A_DTS
Продолжительность : 1 ч. 51 м.
Вид битрейта : Постоянный
Битрейт : 1509 Кбит/сек
Каналы : 6 каналов
Расположение каналов : Front: L C R, Side: L R, LFE
Частота : 48,0 КГц
Битовая глубина : 24 бит
Метод сжатия : С потерями
Размер потока : 1,18 Гбайт (15%)
Язык : English
Default : Да
Forced : Нет
Меню
00:00:00.000 : en:00:00:00.000
00:09:53.718 : en:00:09:53.718
00:21:58.108 : en:00:21:58.108
00:30:02.300 : en:00:30:02.300
00:38:05.283 : en:00:38:05.283
00:47:12.580 : en:00:47:12.580
00:55:26.907 : en:00:55:26.907
01:06:00.456 : en:01:06:00.456
01:15:44.331 : en:01:15:44.331
01:24:50.794 : en:01:24:50.794
01:34:35.336 : en:01:34:35.336
01:46:47.401 : en:01:46:47.401
[Профиль] [ЛС]

Создавать темы 01-Сен-2015 05:41 (спустя 7 дней)

Топик был перенесен из форума Фильмы (HD Rips | 720p, 1080p) в форум Фильмы (HD Rips | 720p, 1080p)
sergej644
 
Показать сообщения:    

Текущее время: Сегодня 00:36

Часовой пояс: GMT



Вы не можете начинать темы
Вы не можете отвечать на сообщения
Вы не можете редактировать свои сообщения
Вы не можете удалять свои сообщения
Вы не можете голосовать в опросах
Вы не можете прикреплять файлы к сообщениям
Вы не можете скачивать файлы