Бесконечно белый медведь / Infinitely Polar Bear (2014) BDRemux 1080p | Лицензия

 
Автор Сообщение

достали все ®

Пол:

Стаж: 1 год 8 месяцев

Сообщений: 6600



Награды: 12 (Подробнее)

За внесенный вклад в развитие сайта (Количество: 1) Top Releaser 3 (Количество: 1) Mega Seeder 2 (Количество: 1)
Торрент-статистика

Создавать темы 09-Янв-2016 04:48

[Цитировать]

Бесконечно белый медведь / Infinitely Polar Bear
Русское название: Бесконечно белый медведь
Оригинальное название: Infinitely Polar Bear
Год выпуска: 2014
Жанр: драма, комедия
Выпущено: США
Режиссер: Майя Форбс
В ролях: Зои Салдана , Марк Руффало , Кейр Дуллеа , Уоллес Володарски , Имоджин Володарски , Ashley Aufderheide , Мэри О’Рурк , Брианн Брози , Адам В. Майэрсон , Уильям Ксифарас , Джорджия Лиман , Бет Диксон
Перевод: Профессиональный многоголосый [Лицензия]

Сюжет фильма:
Кэмерон пытается вернуть свою жену Мэгги. Ради этого он пробует взять на себя полную ответственность за их двух молодых дочерей, которые отнюдь не стараются облегчить ему задачу.

Качество: BD Remux
Контейнер (Расширение): MKV
Видео: 1920x1080, 24325 Кбит/сек, 23,976 кадр/сек, 0,489 Бит/[Пиксели*Кадры]
Аудио №1: русский / AC3 / 5.1 / 48 kHz / 640 kbps / |Профессиональный многоголосый|
Аудио №2: английский / DTS-HD / 5.1 / 48 kHz / 2122 kbps / (Core: 5.1 / 48 kHz / 1510 kbps / 16 bit)
Субтитры: русские, английские
Навигация по главам(Чаптеры): есть
Продолжительность: 01:28:00Релиз от:

MediaInfo

Format : Matroska
Format version : Version 2
File size : 17.0 GiB
Duration : 1h 28mn
Overall bit rate mode : Variable
Overall bit rate : 27.6 Mbps
Movie name : Infinitely Polar Bear.(2014).Blu-Ray Remux.[denis100]
Encoded date : UTC 2016-01-08 18:50:01
Writing application : mkvmerge v5.8.0 ('No Sleep / Pillow') built on Sep 2 2012 15:37:04
Writing library : libebml v1.2.3 + libmatroska v1.3.0
Video
ID : 1
Format : AVC
Format/Info : Advanced Video Codec
Format profile : High@L4.1
Format settings, CABAC : Yes
Format settings, ReFrames : 2 frames
Format settings, GOP : M=1, N=10
Codec ID : V_MPEG4/ISO/AVC
Duration : 1h 28mn
Bit rate mode : Variable
Bit rate : 24.3 Mbps
Width : 1 920 pixels
Height : 1 080 pixels
Display aspect ratio : 16:9
Frame rate : 23.976 fps
Color space : YUV
Chroma subsampling : 4:2:0
Bit depth : 8 bits
Scan type : Progressive
Bits/(Pixel*Frame) : 0.489
Stream size : 15.0 GiB (88%)
Title : Infinitely Polar Bear.(2014).Blu-Ray Remux.[denis100.NNNB]
Default : Yes
Forced : No
Audio #1
ID : 2
Format : AC-3
Format/Info : Audio Coding 3
Mode extension : CM (complete main)
Codec ID : A_AC3
Duration : 1h 28mn
Bit rate mode : Constant
Bit rate : 640 Kbps
Channel(s) : 6 channels
Channel positions : Front: L C R, Side: L R, LFE
Sampling rate : 48.0 KHz
Bit depth : 16 bits
Compression mode : Lossy
Delay relative to video : -17ms
Stream size : 403 MiB (2%)
Title : MVO
Language : Russian
Default : Yes
Forced : No
Audio #2
ID : 3
Format : DTS
Format/Info : Digital Theater Systems
Format profile : MA / Core
Codec ID : A_DTS
Duration : 1h 28mn
Bit rate mode : Variable
Bit rate : 2 071 Kbps / 1 510 Kbps
Channel(s) : 6 channels
Channel positions : Front: L C R, Side: L R, LFE
Sampling rate : 48.0 KHz
Bit depth : 16 bits
Compression mode : Lossless / Lossy
Language : English
Default : No
Forced : No
Text #1
ID : 4
Format : PGS
Muxing mode : zlib
Codec ID : S_HDMV/PGS
Codec ID/Info : The same subtitle format used on BDs/HD-DVDs
Language : Russian
Default : No
Forced : No
Text #2
ID : 5
Format : PGS
Muxing mode : zlib
Codec ID : S_HDMV/PGS
Codec ID/Info : The same subtitle format used on BDs/HD-DVDs
Language : English
Default : No
Forced : No
Menu
00:00:00.000 : en:Chapter 01
00:06:18.378 : en:Chapter 02
00:09:38.661 : en:Chapter 03
00:13:21.217 : en:Chapter 04
00:17:34.094 : en:Chapter 05
00:20:57.464 : en:Chapter 06
00:24:25.422 : en:Chapter 07
00:30:03.009 : en:Chapter 08
00:33:41.561 : en:Chapter 09
00:38:13.582 : en:Chapter 10
00:43:01.370 : en:Chapter 11
00:47:36.186 : en:Chapter 12
00:53:01.428 : en:Chapter 13
01:03:15.333 : en:Chapter 14
01:11:06.303 : en:Chapter 15
01:18:11.311 : en:Chapter 16

Скриншоты

[Профиль] [ЛС]
Показать сообщения:    

Текущее время: Сегодня 07:11

Часовой пояс: GMT



Вы не можете начинать темы
Вы не можете отвечать на сообщения
Вы не можете редактировать свои сообщения
Вы не можете удалять свои сообщения
Вы не можете голосовать в опросах
Вы не можете прикреплять файлы к сообщениям
Вы не можете скачивать файлы