Бесконечность / Infini (2015) HDRip | L2

 
Автор Сообщение

BOSS ®

Пол:

Стаж: 2 года 1 месяц

Сообщений: 3718

Откуда: ODESSA



Награды: 20 (Подробнее)

Mega Seeder 3 (Количество: 1) Mega Seeder 1 (Количество: 1) Top Keeper 2 (Количество: 1)
Торрент-статистика

Создавать темы 17-Окт-2015 13:06

[Цитировать]

Информация о фильме
Название: Бесконечность
Оригинальное название: Infini
Год выхода: 2015
Жанр: фантастика, триллер, драма
Режиссер: Шейн Эббесс
В ролях: Дэниэл МакФерсон, Грэйс Хуанг, Люк Хемсворт, Брен Фостер, Люк Форд, Дуэйн Стивенсон, Луиса Миньоне, Тесс Хобрич, Гарри Павлидис, Кевин Коуплэнд
О фильме: Элитный спасательный отряд переброшен на удаленный горнодобывающий комплекс, чтобы спасти Уита Кармайкла, единственного выжившего после биологической катастрофы.


Выпущено: Австралия / Storm Vision Entertainment, Eclectik Vision, Storm Alley Entertainment
Продолжительность: 01:50:35
Озвучивание: Любительское (двухголосное) [RAIM & NASTR]
Файл
Формат: AVI (XviD)
Качество: HDRip
Видео: 747 kb/s, 720x304
Аудио: AC3, 128 kb/s (2 ch)
Размер: 700 MB-

Media Info

General
Complete name : 6ezk0HechH0st.2015.DVO.HDRip.700MB.avi
Format : AVI
Format/Info : Audio Video Interleave
File size : 699 MiB
Duration : 1h 50mn
Overall bit rate : 884 Kbps
Writing application : VirtualDubMod 1.5.10.2 (build 2540/release)
Writing library : VirtualDubMod build 2540/release
Video
ID : 0
Format : MPEG-4 Visual
Format profile : Advanced Simple@L5
Format settings, BVOP : 2
Format settings, QPel : No
Format settings, GMC : No warppoints
Format settings, Matrix : Default (MPEG)
Codec ID : XVID
Codec ID/Hint : XviD
Duration : 1h 50mn
Bit rate : 747 Kbps
Width : 720 pixels
Height : 304 pixels
Display aspect ratio : 2.35:1
Frame rate : 24.000 fps
Color space : YUV
Chroma subsampling : 4:2:0
Bit depth : 8 bits
Scan type : Progressive
Compression mode : Lossy
Bits/(Pixel*Frame) : 0.142
Stream size : 591 MiB (84%)
Writing library : XviD 1.2.1 (UTC 2008-12-04)
Audio
ID : 1
Format : AC-3
Format/Info : Audio Coding 3
Mode extension : CM (complete main)
Format settings, Endianness : Big
Codec ID : 2000
Duration : 1h 50mn
Bit rate mode : Constant
Bit rate : 128 Kbps
Channel(s) : 2 channels
Channel positions : Front: L R
Sampling rate : 48.0 KHz
Compression mode : Lossy
Stream size : 101 MiB (14%)
Alignment : Split accross interleaves
Interleave, duration : 42 ms (1.00 video frame)
Interleave, preload duration : 500 ms

Скриншоты | повтор:

[/url
- -
[Профиль] [ЛС]
Показать сообщения:    

Текущее время: Сегодня 00:03

Часовой пояс: GMT



Вы не можете начинать темы
Вы не можете отвечать на сообщения
Вы не можете редактировать свои сообщения
Вы не можете удалять свои сообщения
Вы не можете голосовать в опросах
Вы не можете прикреплять файлы к сообщениям
Вы не можете скачивать файлы