Бесконечность / Infini (2015) HDRip | L2

 
Автор Сообщение

BOSS ®

Пол:

Стаж: 2 года 2 месяца

Сообщений: 3751

Откуда: ODESSA



Награды: 20 (Подробнее)

Top Keeper 4 (Количество: 1) Mega Releaser 3 (Количество: 1) Mega Seeder 3 (Количество: 1)
Торрент-статистика

Создавать темы 17-Окт-2015 13:05

[Цитировать]

Информация о фильме
Название: Бесконечность
Оригинальное название: Infini
Год выхода: 2015
Жанр: фантастика, триллер, драма
Режиссер: Шейн Эббесс
В ролях: Дэниэл МакФерсон, Грэйс Хуанг, Люк Хемсворт, Брен Фостер, Люк Форд, Дуэйн Стивенсон, Луиса Миньоне, Тесс Хобрич, Гарри Павлидис, Кевин Коуплэнд
О фильме: Элитный спасательный отряд переброшен на удаленный горнодобывающий комплекс, чтобы спасти Уита Кармайкла, единственного выжившего после биологической катастрофы.


Выпущено: Австралия / Storm Vision Entertainment, Eclectik Vision, Storm Alley Entertainment
Продолжительность: 01:50:35
Озвучивание: Любительское (двухголосное) [RAIM & NASTR]
Файл
Формат: AVI (XviD)
Качество: HDRip
Видео: 1858 kb/s, 720x304
Аудио: Russian: AC3, 320 kb/s (2 ch) / English: AC3, 448 kb/s (6 ch)
Размер: 2100 MB-

Media Info

General
Complete name : 6ezk0HechH0st.2015.DVO.HDRip.2100MB.avi
Format : AVI
Format/Info : Audio Video Interleave
Format profile : OpenDML
File size : 2.04 GiB
Duration : 1h 50mn
Overall bit rate : 2 644 Kbps
Writing application : VirtualDubMod 1.5.10.2 (build 2540/release)
Writing library : VirtualDubMod build 2540/release
Video
ID : 0
Format : MPEG-4 Visual
Format profile : Advanced Simple@L5
Format settings, BVOP : 2
Format settings, QPel : No
Format settings, GMC : No warppoints
Format settings, Matrix : Default (H.263)
Codec ID : XVID
Codec ID/Hint : XviD
Duration : 1h 50mn
Bit rate : 1 858 Kbps
Width : 720 pixels
Height : 304 pixels
Display aspect ratio : 2.35:1
Frame rate : 24.000 fps
Color space : YUV
Chroma subsampling : 4:2:0
Bit depth : 8 bits
Scan type : Progressive
Compression mode : Lossy
Bits/(Pixel*Frame) : 0.354
Stream size : 1.43 GiB (70%)
Writing library : XviD 1.2.1 (UTC 2008-12-04)
Audio #1
ID : 1
Format : AC-3
Format/Info : Audio Coding 3
Mode extension : CM (complete main)
Format settings, Endianness : Big
Codec ID : 2000
Duration : 1h 50mn
Bit rate mode : Constant
Bit rate : 320 Kbps
Channel(s) : 2 channels
Channel positions : Front: L R
Sampling rate : 48.0 KHz
Compression mode : Lossy
Stream size : 253 MiB (12%)
Alignment : Split accross interleaves
Interleave, duration : 42 ms (1.00 video frame)
Interleave, preload duration : 500 ms
Audio #2
ID : 2
Format : AC-3
Format/Info : Audio Coding 3
Mode extension : CM (complete main)
Format settings, Endianness : Big
Codec ID : 2000
Duration : 1h 50mn
Bit rate mode : Constant
Bit rate : 448 Kbps
Channel(s) : 6 channels
Channel positions : Front: L C R, Side: L R, LFE
Sampling rate : 48.0 KHz
Compression mode : Lossy
Stream size : 354 MiB (17%)
Alignment : Split accross interleaves
Interleave, duration : 42 ms (1.00 video frame)
Interleave, preload duration : 500 ms

Скриншоты | повтор:

- -
[Профиль] [ЛС]
Показать сообщения:    

Текущее время: Сегодня 22:41

Часовой пояс: GMT



Вы не можете начинать темы
Вы не можете отвечать на сообщения
Вы не можете редактировать свои сообщения
Вы не можете удалять свои сообщения
Вы не можете голосовать в опросах
Вы не можете прикреплять файлы к сообщениям
Вы не можете скачивать файлы