Бернард и Дорис / Bernard and Doris (Боб Балабан / Bob Balaban) [2007, США, драма, биография, HDTVRip] MVO

 
Автор Сообщение

TorrentFilm ®

Пол:

Стаж: 2 года

Сообщений: 7741



Награды: Нет

Торрент-статистика

Создавать темы 19-Дек-2014 02:06

[Цитировать]

Бернард и Дорис / Bernard and Doris
Страна: США
Жанр: драма, биография
Год выпуска: 2007
Продолжительность: 01:36:56
Перевод: Профессиональный (многоголосый закадровый)
Cубтитры: нет
Режиссер: Боб Балабан / Bob Balaban
В ролях: Рэйф Файнс, Сьюзан Сарандон, Дон Харви, Джеймс Ребхорн, Моника Карнен, Крис Байер,...
Описание: Закулисная история о последних годах жизни табачной миллиардерши Дорис Дьюк (1912—1993) и её отношениях с преданным дворецким Бернардом Лафферти.
Героиня фильма несчастлива, несмотря на свое огромное богатство: Дорис Дьюк унаследовала «табачную империю» и одно время была самой богатой женщиной в мире. За плечами три неудачных брака и многочисленные скандальные «разборки» с охотниками за ее состоянием.
Отныне Дорис живет одна и очень уединенно. Рядом с ней — дворецкий-ирландец, человек нетрадиционной ориентации. Ему она доверяет и именно ему завещает ежегодную ренту в размере почти полумиллиона долларов. Случай из ряда вон выходящий. Как такое могло случиться? Наследники еще долго не могут смириться с потерей богатства, пытаясь оспорить столь странное завещание…
Сэмпл: https://yadi.sk/i/En5iWshbdQCj3
Доп. информация: За предоставленный рип благодарим Ledy_X
"Спасибы" просьба ПИСАТЬ в теме, тем самым вы продлеваете жизнь раздаче.
Релиз
Качество видео: HDTVRip [Исходник 1080i]
Формат видео: AVI
Видео: 720x400 (1.80:1), 25 fps, XviD build 50 ~1749 kbps avg, 0.24 bit/pixel
Аудио: 48 kHz, AC3 Dolby Digital, 3/2 (L,C,R,l,r) + LFE ch, ~384 kbps

MediaInfo

Бернард и Дорис - Bernard and Doris [Rip by Ledy_X].avi
Format : AVI
Format/Info : Audio Video Interleave
File size : 1.45 GiB
Duration : 1h 36mn
Overall bit rate : 2 144 Kbps
Movie name : Бернард и Дорис - Bernard and Doris [Rip by Ledy_X]
Director : Rip by Ledy_X
Writing application : VirtualDubMod 1.5.10.3 | www.virtualdub-fr.org || (build 2550/release)
Copyright : RuTracker.org
Video
ID : 0
Format : MPEG-4 Visual
Format profile : Advanced Simple@L5
Format settings, BVOP : 1
Format settings, QPel : No
Format settings, GMC : No warppoints
Format settings, Matrix : Default (MPEG)
Codec ID : XVID
Codec ID/Hint : XviD
Duration : 1h 36mn
Bit rate : 1 750 Kbps
Width : 720 pixels
Height : 400 pixels
Display aspect ratio : 16:9
Frame rate : 25.000 fps
Color space : YUV
Chroma subsampling : 4:2:0
Bit depth : 8 bits
Scan type : Progressive
Compression mode : Lossy
Bits/(Pixel*Frame) : 0.243
Stream size : 1.18 GiB (82%)
Writing library : XviD 1.2.1 (UTC 2008-12-04)
Audio
ID : 1
Format : AC-3
Format/Info : Audio Coding 3
Mode extension : CM (complete main)
Format settings, Endianness : Big
Codec ID : 2000
Duration : 1h 36mn
Bit rate mode : Constant
Bit rate : 384 Kbps
Channel(s) : 6 channels
Channel positions : Front: L C R, Side: L R, LFE
Sampling rate : 48.0 KHz
Bit depth : 16 bits
Compression mode : Lossy
Stream size : 266 MiB (18%)
Alignment : Split accross interleaves
Interleave, duration : 40 ms (1.00 video frame)
Interleave, preload duration : 500 ms

Скриншоты


[Профиль] [ЛС]

Создавать темы 06-Авг-2015 22:54 (спустя 7 месяцев 18 дней)

Топик был перенесен из форума Фильмы до 2014 года в форум Фильмы до 2012 года
sergej644
 
Кто просматривает тему:

Форум Тема Автор Размер
Фантастика и фэнтези Бернард Вербер - Танатонавты (2015) MP3 Swager 446 MB
Фантастика, фэнтези Бернард Корнуэлл - Собрание сочинений [53 книги] (1996-2014) FB2 достали все 56 MB
Разное Биталон. Лыжные гонки. Приз губернатора Тюменской области. Тюмень (Россия) [10.04] (2016) WEB-DL 720p Russian Mafia 7.41 GB
Фильмы 2006-2008 года Благая весть / La buena nueva (Елена Таберна / Helena Taberna) [2008, Испания, драма, исторический, военный, DVDRip] + Sub Rus + Original Spa TorrentFilm 1.18 GB
R.G.TorrentFilm Video Доисторические звездные часы / Star Clock BC (Эмили Бернард / Emily Bernard) [2010 г., Научно-популярный, SATRip] DVO Один 777 500 MB
История древнего мира Писари Древнего Египта / Ancient Egyptian Scribe (Бернар Жорж) [2013 г., Документальный, история, египтология, SATRip] skorpionN 800 MB
История древнего мира После Храброго сердца (После Бэннокберна) / After Braveheart (After Bannockburn) [серии 1-2 из 2] (Maurice Sweeney) [2015 г., Документально-постановочный, история, SATRip] skorpionN 1.64 GB
Фильмы 2009 года Регата / La regate (Бернар Бельфруа / Bernard Bellefroid) [2009, Бельгия, Люксембург, Франция, драма, DVB] Original (Fra) + Sub (rus) TorrentFilm 2.2 GB
Показать сообщения:    

Текущее время: Сегодня 14:29

Часовой пояс: GMT



Вы не можете начинать темы
Вы не можете отвечать на сообщения
Вы не можете редактировать свои сообщения
Вы не можете удалять свои сообщения
Вы не можете голосовать в опросах
Вы не можете прикреплять файлы к сообщениям
Вы не можете скачивать файлы