Берлин, я люблю тебя / Berlin, I Love You (2019) WEB-DL 1080p | HDRezka Studio

 
Автор Сообщение

BOSS ®

Пол:

Стаж: 4 года 5 месяцев

Сообщений: 13860

Откуда: ODESSA



Награды: 22 (Подробнее)

Top Keeper 2 (Количество: 1) Mega Seeder 3 (Количество: 1) Top Releaser 5 (Количество: 1)
Торрент-статистика

Создавать темы 14-Мар-2019 19:26

[Цитировать]

Информация о фильме
Название: Берлин, я люблю тебя
Оригинальное название: Berlin, I Love You
Год выпуска: 2019
Жанр: Драма, мелодрама
Режиссер: Дианна Агрон, Питер Челсом, Фернандо Эймбке
В ролях: Кира Найтли, Хелен Миррен, Люк Уилсон, Джим Стёрджесс, Микки Рурк, Дженна Деван, Хайден Панеттьери, Эмили Бичем, Дианна Агрон, Вероника Феррес
О фильме: Последний выпуск серии "Города любви". Полнометражный фильм создан из десятка романтических историй, которые происходят в столице Германии, Берлине.

Выпущено: Германия, Bily Media Berlin, Rheingold Films, Shotz Fiction Film
Продолжительность: 01:59:50
Перевод: Профессиональный (многоголосый, закадровый) | HDRezka Studio
Файл
Качество: WEB-DL 1080p
Контейнер: MKV
Видео: MPEG-4 AVC, 5187 Кбит/с, 1908х1026, 23.976 кадр/с
Аудио 1: Русский: AC3, 2 ch, 192 Кбит/с - HDRezka Studio
Аудио 2: Английский: AC3, 6 ch, 384 Кбит/с - Оригинал
Субтитры: Нет
Релиз от:

Скриншоты


MediaInfo

General
Unique ID : 153943335278559661912212744805098784199 (0x73D0686D211F18AD05ACDF284E1905C7)
Complete name : F:Berlin.I.Love.You.2019.webdL.108Op.werecut.PROD.mkv
Format : Matroska
Format version : Version 4
File size : 4.83 GiB
Duration : 1 h 59 min
Overall bit rate : 5 765 kb/s
Movie name : Berlin I Love You 2019 OT werecut PROD.
Encoded date : UTC 2019-03-11 15:56:10
Writing application : mkvmerge v28.0.0 ('Voice In My Head') 64-bit
Writing library : libebml v1.3.6 + libmatroska v1.4.9
Video
ID : 1
Format : AVC
Format/Info : Advanced Video Codec
Format profile : High@L4
Format settings : CABAC / 4 Ref Frames
Format settings, CABAC : Yes
Format settings, ReFrames : 4 frames
Codec ID : V_MPEG4/ISO/AVC
Duration : 1 h 59 min
Bit rate : 5 187 kb/s
Width : 1 908 pixels
Height : 1 026 pixels
Display aspect ratio : 1.85:1
Frame rate mode : Constant
Frame rate : 23.976 (24000/1001) FPS
Color space : YUV
Chroma subsampling : 4:2:0
Bit depth : 8 bits
Scan type : Progressive
Bits/(Pixel*Frame) : 0.111
Stream size : 4.34 GiB (90%)
Language : English
Default : Yes
Forced : No
Color range : Limited
Color primaries : BT.709
Transfer characteristics : BT.709
Matrix coefficients : BT.709
Audio #1
ID : 2
Format : AC-3
Format/Info : Audio Coding 3
Commercial name : Dolby Digital
Codec ID : A_AC3
Duration : 1 h 59 min
Bit rate mode : Constant
Bit rate : 192 kb/s
Channel(s) : 2 channels
Channel layout : L R
Sampling rate : 48.0 kHz
Frame rate : 31.250 FPS (1536 SPF)
Bit depth : 16 bits
Compression mode : Lossy
Delay relative to video : -42 ms
Stream size : 165 MiB (3%)
Title : HDRezka Studio
Language : Russian
Service kind : Complete Main
Default : Yes
Forced : No
Audio #2
ID : 3
Format : AC-3
Format/Info : Audio Coding 3
Commercial name : Dolby Digital
Codec ID : A_AC3
Duration : 1 h 59 min
Bit rate mode : Constant
Bit rate : 384 kb/s
Channel(s) : 6 channels
Channel layout : L R C LFE Ls Rs
Sampling rate : 48.0 kHz
Frame rate : 31.250 FPS (1536 SPF)
Bit depth : 16 bits
Compression mode : Lossy
Delay relative to video : -42 ms
Stream size : 329 MiB (7%)
Language : English
Service kind : Complete Main
Default : No
Forced : No
Menu
00:00:00.000 : en:1
00:12:29.000 : en:2
00:20:02.000 : en:3
00:31:07.000 : en:4
00:43:35.000 : en:5
00:52:40.000 : en:6
01:04:23.000 : en:7
01:12:48.000 : en:8
01:19:10.000 : en:9
01:27:21.000 : en:10
01:37:15.000 : en:11
01:47:10.000 : en:12
[Профиль] [ЛС]
Кто просматривает тему:

Форум Тема Автор Размер
Discovery Discovery: Шпионы в берлинском тоннеле / Discovery: Spies Beneath Berlin (Сэм Бенстид / Sam Benstead, Джонатан Хакер / Jonathan Hacker) [2011, Документальный, SATRip] reversefile 471 MB
Viasat History Viasat History: Париж и Берлин: путешествие сквозь время / Paris-Berlin: Shapes and Shades of History[серии 1-4 из 4] (Frédéric Wilner) [2015 г., Документальный, история, архитектура, SATRip] skorpionN 2.95 GB
Фильмы (HD DVD, Blu-ray и BDRemux) Безымянная - одна женщина в Берлине / Anonyma - Eine Frau in Berlin (2008) BDRemux 1080p Russian Mafia 20.35 GB
Фильмы (HD Rips | 720p, 1080p) Берлин, я люблю тебя / Berlin, I Love You (2019) WEBRip 720p | L2 BOSS 2.68 GB
Фильмы 2019 года Берлин, я люблю тебя / Berlin, I Love You (2019) WEBRip | L2 BOSS 1.68 GB
Зарубежные сериалы Берлинская резидентура / Berlin Station [S01] (2016) WEBRip | Jaskier достали все 6.55 GB
Зарубежные сериалы Берлинская резидентура / База "Берлин" / Berlin Station [S01] (2016) WEBRip 720p | Jaskier достали все 14.02 GB
Фильмы 2017 года Берлинский синдром / Berlin Syndrome (2017) BDRip | iTunes BOSS 1.41 GB
Показать сообщения:    

Текущее время: Сегодня 05:45

Часовой пояс: GMT



Вы не можете начинать темы
Вы не можете отвечать на сообщения
Вы не можете редактировать свои сообщения
Вы не можете удалять свои сообщения
Вы не можете голосовать в опросах
Вы не можете прикреплять файлы к сообщениям
Вы не можете скачивать файлы