Берлинский синдром / Berlin Syndrome (2017) WEB-DL 1080p | L1

 
Автор Сообщение

BOSS ®

Пол:

Стаж: 3 года

Сообщений: 7554

Откуда: ODESSA



Награды: 22 (Подробнее)

Mega Releaser 1 (Количество: 1) Top Seeder 3 (Количество: 1) Top Seeder 2 (Количество: 1)
Торрент-статистика

Создавать темы 28-Июл-2017 07:05

[Цитировать]

Информация о фильме
Название: Берлинский синдром
Оригинальное название: Berlin Syndrome
Год выхода: 2017
Жанр: триллер, драма, детектив
Режиссер: Кейт Шортланд
В ролях: Тереза Палмер, Макс Римельт, Люси Арон, Сем Тункай, Маттиас Хабих, Эмма Бадинг, Майя Абсберг, Морган Ферру, Кристина Костив, Чарли Торн
Описание: Во время отпуска в Берлине Клэр знакомится с обаятельным Энди и между ними сразу возникает влечение. После совместной прогулки по городу они проводят ночь вместе, но то, что на первый взгляд кажется началом бурного романа, неожиданно принимает зловещий оборот.

Страна: Австралия, Германия
Продолжительность: 01:55:57
Перевод: Любительский (одноголосый, закадровый) BadBajo
Файл
Качество: WEB-DL 1080p
Видео: 1920x792 at 24.000 fps, x264@L4.1, 4450 kbps
Звук: 48 kHz, AC-3, 5.1 ch, 384 kbps

Скриншоты

MediaInfo

Общее
Уникальный идентификатор : 232406758483301650328217931740369784790 (0xAED7E9DE06A10529B2F3709EA1660FD6)
Полное имя : D:FilmsBerlin.Syndrome.2017.1080p.WEB-DL.DD5.1.H264.mkv
Формат : Matroska
Версия формата : Version 4 / Version 2
Размер файла : 4,31 Гбайт
Продолжительность : 1 ч. 55 м.
Общий поток : 5324 Кбит/сек
Дата кодирования : UTC 2017-07-26 17:15:00
Программа кодирования : mkvmerge v14.0.0 ('Flow') 32bit
Библиотека кодирования : libebml v1.3.4 + libmatroska v1.4.5
DURATION : 01:55:57.152000000
NUMBER_OF_FRAMES : 217411
NUMBER_OF_BYTES : 333943296
_STATISTICS_WRITING_APP : mkvmerge v14.0.0 ('Flow') 32bit
_STATISTICS_WRITING_DATE_UTC : 2017-07-26 17:15:00
_STATISTICS_TAGS : BPS DURATION NUMBER_OF_FRAMES NUMBER_OF_BYTES
Видео
Идентификатор : 1
Формат : AVC
Формат/Информация : Advanced Video Codec
Профиль формата : High@L4.0
Параметр CABAC формата : Да
Параметр ReFrames формата : 5 кадров
Идентификатор кодека : V_MPEG4/ISO/AVC
Продолжительность : 1 ч. 55 м.
Битрейт : 4450 Кбит/сек
Ширина : 1920 пикселей
Высота : 792 пикселя
Соотношение сторон : 2,40:1
Режим частоты кадров : Постоянный
Частота кадров : 24,000 кадра/сек
Цветовое пространство : YUV
Субдискретизация насыщенности : 4:2:0
Битовая глубина : 8 бит
Тип развёртки : Прогрессивная
Бит/(Пиксели*Кадры) : 0.122
Размер потока : 3,60 Гбайт (84%)
Язык : English
Default : Да
Forced : Нет
Основные цвета : BT.709
Характеристики трансфера : BT.709
Коэффициенты матрицы : BT.709
Аудио #1
Идентификатор : 2
Формат : AC-3
Формат/Информация : Audio Coding 3
Расширение режима : CM (complete main)
Параметр Endianness формата : Big
Идентификатор кодека : A_AC3
Продолжительность : 1 ч. 55 м.
Вид битрейта : Постоянный
Битрейт : 384 Кбит/сек
Каналы : 6 каналов
Расположение каналов : Front: L C R, Side: L R, LFE
Частота : 48,0 КГц
Битовая глубина : 16 бит
Метод сжатия : С потерями
Задержка видео : -42 мс.
Размер потока : 318 Мбайт (7%)
Язык : Russian
Default : Да
Forced : Нет
Аудио #2
Идентификатор : 3
Формат : AC-3
Формат/Информация : Audio Coding 3
Расширение режима : CM (complete main)
Параметр Endianness формата : Big
Идентификатор кодека : A_AC3
Продолжительность : 1 ч. 55 м.
Вид битрейта : Постоянный
Битрейт : 384 Кбит/сек
Каналы : 6 каналов
Расположение каналов : Front: L C R, Side: L R, LFE
Частота : 48,0 КГц
Битовая глубина : 16 бит
Метод сжатия : С потерями
Задержка видео : -42 мс.
Размер потока : 318 Мбайт (7%)
Язык : English
Default : Нет
Forced : Нет
Текст #1
Идентификатор : 4
Формат : UTF-8
Идентификатор кодека : S_TEXT/UTF8
Идентификатор кодека/Информация : UTF-8 Plain Text
Заголовок : FORCED
Язык : English
Default : Да
Forced : Нет
Текст #2
Идентификатор : 5
Формат : UTF-8
Идентификатор кодека : S_TEXT/UTF8
Идентификатор кодека/Информация : UTF-8 Plain Text
Заголовок : FULL
Язык : English
Default : Нет
Forced : Нет
Меню
00:00:00.000 : :Opening Sequence
00:07:13.000 : :In Search Of Something
00:14:44.000 : :Empty Places
00:21:42.000 : :Locked In
00:30:21.000 : :Mine
00:36:10.000 : :What Is Going On?
00:43:56.000 : :There's Nowhere To Go
00:50:24.000 : :You Have Me
00:58:28.000 : :Who Was That?
01:05:21.000 : :Left Alone
01:12:30.000 : :My Father's Dead
01:19:55.000 : :Do You Like It?
01:28:52.000 : :New Year's Eve
01:36:57.000 : :Pack Your Things
01:43:09.000 : :Escape
01:50:48.000 : :End Credits
[Профиль] [ЛС]
Кто просматривает тему:

Форум Тема Автор Размер
Discovery Discovery: Шпионы в берлинском тоннеле / Discovery: Spies Beneath Berlin (Сэм Бенстид / Sam Benstead, Джонатан Хакер / Jonathan Hacker) [2011, Документальный, SATRip] reversefile 471 MB
Viasat History Viasat History: Париж и Берлин: путешествие сквозь время / Paris-Berlin: Shapes and Shades of History[серии 1-4 из 4] (Frédéric Wilner) [2015 г., Документальный, история, архитектура, SATRip] skorpionN 2.95 GB
Фильмы (HD DVD, Blu-ray и BDRemux) Безымянная - одна женщина в Берлине / Anonyma - Eine Frau in Berlin (2008) BDRemux 1080p Russian Mafia 20.35 GB
Зарубежные сериалы Берлинская резидентура / Berlin Station [S01] (2016) WEBRip | Jaskier достали все 6.55 GB
Зарубежные сериалы Берлинская резидентура / База "Берлин" / Berlin Station [S01] (2016) WEBRip 720p | Jaskier достали все 14.02 GB
Фильмы 2017 года Берлинский синдром / Berlin Syndrome (2017) BDRip | iTunes BOSS 1.41 GB
Фильмы (HD Rips | 720p, 1080p) Берлинский синдром / Berlin Syndrome (2017) WEB-DL 1080p | iTunes BOSS 4.31 GB
Фильмы (HD Rips | 720p, 1080p) Берлинский синдром / Berlin Syndrome (2017) WEB-DL 720p | iTunes BOSS 3.85 GB
Показать сообщения:    

Текущее время: Сегодня 11:30

Часовой пояс: GMT



Вы не можете начинать темы
Вы не можете отвечать на сообщения
Вы не можете редактировать свои сообщения
Вы не можете удалять свои сообщения
Вы не можете голосовать в опросах
Вы не можете прикреплять файлы к сообщениям
Вы не можете скачивать файлы