Берегите тепло (Мстислав Купрач) [1986, мультфильм, DVB]

 
Автор Сообщение

TorrentFilm ®

Пол:

Стаж: 2 года

Сообщений: 7741



Награды: Нет

Торрент-статистика

Создавать темы 03-Янв-2016 00:07

[Цитировать]

Берегите тепло
Жанр: мультфильм
Год выпуска: 1986
Продолжительность: 00:02:11
Режиссёр: Мстислав Купрач
Описание: мультфильм о том, как сохранить тепло в квартире ...
Доп. информация: огромная благодарность за предоставленный исходник

Релиз группы:
Трансляция спутникового канала:

Качество видео: DVB
Формат видео: MPEG-PS
Видео: MPEG2 Video, 720x576@768x576 (4:3), анаморф, 25 fps, 9000 kbps
Аудио: MPEG Audio, 2 сh, 48 kHz, 384 Kbps

MediaInfo

D:\Берегите тепло. (1986)_DVB by RG multfilms.mpg
General
Complete name : D:\Берегите тепло. (1986)_DVB by RG multfilms.mpg
Format : MPEG-PS
File size : 150 MiB
Duration : 2mn 12s
Overall bit rate : 9 522 Kbps
Video #224
ID : 224 (0xE0)
Format : MPEG Video
Format version : Version 2
Format profile : Main@Main
Format settings, BVOP : Yes
Format settings, Matrix : Custom
Format settings, GOP : M=3, N=12
Duration : 2mn 11s
Bit rate : 9 000 Kbps
Width : 720 pixels
Height : 576 pixels
Display aspect ratio : 4:3
Frame rate : 25.000 fps
Standard : PAL
Color space : YUV
Chroma subsampling : 4:2:0
Bit depth : 8 bits
Scan type : Interlaced
Scan order : Top Field First
Compression mode : Lossy
Bits/(Pixel*Frame) : 0.868
Stream size : 140 MiB (93%)
Audio #192
ID : 192 (0xC0)
Format : MPEG Audio
Format version : Version 1
Format profile : Layer 2
Duration : 2mn 12s
Bit rate mode : Constant
Bit rate : 384 Kbps
Channel(s) : 2 channels
Sampling rate : 48.0 KHz
Compression mode : Lossy
Delay relative to video : -80ms
Stream size : 6.05 MiB (4%)
Menu

Скриншоты


[Профиль] [ЛС]
Кто просматривает тему:

Форум Тема Автор Размер
Отечественные мультфильмы Алеша Попович и Тугарин Змей / Добрыня Никитич и Змей Горыныч / Илья Муромец и Соловей Разбойник / Три богатыря и Шамаханская царица / Иван Царевич и Серый Волк / Три богатыря на дальних берегах... reversefile 4.37 GB
Фильмы (HD Rips | 720p, 1080p) Берег моря / Beira-Mar (2015) WEB-DL 720p | L1 достали все 2.19 GB
Фильмы 2015 года Берег моря / Beira-Mar (2015) WEB-DLRip | L1 BOSS 1.44 GB
Фильмы (HD Rips | 720p, 1080p) Берега любви (Андрей Селиванов) [2013, Россия, мелодрама, HDTVRip 720p] TorrentFilm 2.35 GB
Фильмы (HD Rips | 720p, 1080p) Берегись автомобиля (1966) HDTV [1080i] sergej644 4.11 GB
Фильмы (HD Rips | 720p, 1080p) Берегись автомобиля (Эльдар Рязанов) [1966, СССР, мелодрама, комедия, криминал, BDRip 1080p] TorrentFilm 9.25 GB
Фильмы (HD Rips | 720p, 1080p) Берегись автомобиля (Эльдар Рязанов) [1966, СССР, мелодрама, комедия, криминал, BDRip 720p] TorrentFilm 2.94 GB
Фильмы (HD Rips | 720p, 1080p) Берегись автомобиля (Эльдар Рязанов) [1966, СССР, мелодрама, комедия, криминал, Blu-ray Disc 1080p] TorrentFilm 22.9 GB
Показать сообщения:    

Текущее время: Сегодня 22:06

Часовой пояс: GMT



Вы не можете начинать темы
Вы не можете отвечать на сообщения
Вы не можете редактировать свои сообщения
Вы не можете удалять свои сообщения
Вы не можете голосовать в опросах
Вы не можете прикреплять файлы к сообщениям
Вы не можете скачивать файлы