Берегитесь, красавицы / Bachna Ae Haseeno (2008) BDRip-AVC | P

 
Автор Сообщение

sergej644 ®

Пол:

Стаж: 4 года 11 месяцев

Сообщений: 6041

Откуда: Soviet Union



Награды: Нет

Торрент-статистика

Создавать темы 16-Дек-2014 11:05

[Цитировать]

Информация о фильме
Название: Берегитесь, красавицы
Оригинальное название: Bachna Ae Haseeno
Год выхода: 2008
Жанр: драма, мелодрама, комедия
Режиссер: Сиддхарт Ананд
В ролях: Ранбир Капур, Бипаша Басу, Миниша Ламба, Дипика Падукон, Кунал Капур, Хитен Пайнтал, Пунит Иссар, Менекка Арора, Самит Арора, Нташа Бхардвай
Описание: Почему девушки всегда влюбляются не в того парня? Матери предостерегают их от него. Подруги неодобрительно качают головами. Даже разум говорит им: «Беги!». Но нет! У их сердец — другая линия. Они всегда посылают неправильные сигналы. Его имени достаточно, чтобы остановить их умственную работу и начать гонку их сердец. Встречайте, Радж! Он — воплощенная мечта. Кто может обвинить его в том, что он влюбляется так часто, если благоволит любовь. То, что он является покорителем сердец, записано в его ДНК. Мы увидим три истории любви: Радж и Махи, Радж и Радхика, Радж и Гаятри. Разные возлюбленные в разные этапы его жизни. И каждая из них преподает ему маленький урок любви и жизни, учит нежности, сексуальности или смелости. Готовьтесь влюбляться… три раза!

Страна: Индия
Продолжительность: 02:32:22
Перевод #1: Профессиональный (Многоголосый, Закадровый)
Перевод #2: Хинди (Оригинал)
Файл
Формат: MKV
Качество: BDRip-AVC
Видео: 1024x432 (2,40:1), 24.000 fps, 3210 kbps, 0.302 bit/pixel
Аудио #1: AC-3, 6 ch, 448 kbps (Многоголосый)
Аудио #2: AC-3, 6 ch, 448 kbps (Хинди Оригинал)
Субтитры: нет

Скриншоты


MediaInfo

General
Unique ID : 206867481318730813499044436822082976263 (0x9BA13A492EA1C3798F36DCC6B73FFA07)
Complete name : Bachna.Ae.Haseeno.2008.BDRip.AVC.P.mkv
Format : Matroska
Format version : Version 2
File size : 4.37 GiB
Duration : 2h 32mn
Overall bit rate : 4 107 Kbps
Encoded date : UTC 2014-12-16 06:33:43
Writing application : mkvmerge v5.6.0 ('Kenya Kane') built on May 27 2012 16:44:04
Writing library : libebml v1.2.3 + libmatroska v1.3.0
Video
ID : 1
Format : AVC
Format/Info : Advanced Video Codec
Format profile : High@L4.1
Format settings, CABAC : Yes
Format settings, ReFrames : 8 frames
Codec ID : V_MPEG4/ISO/AVC
Duration : 2h 32mn
Bit rate : 3 210 Kbps
Width : 1 024 pixels
Height : 432 pixels
Display aspect ratio : 2.40:1
Original display aspect ratio : 2.40:1
Frame rate mode : Constant
Frame rate : 24.000 fps
Color space : YUV
Chroma subsampling : 4:2:0
Bit depth : 8 bits
Scan type : Progressive
Bits/(Pixel*Frame) : 0.302
Stream size : 3.33 GiB (76%)
Title : Берегитесь, Красавицы / Bachna Ae Haseeno (2008)
Writing library : x264 core 142 r2431 ac76440
Encoding settings : cabac=1 / ref=8 / deblock=1:-2:-2 / analyse=0x3:0x113 / me=umh / subme=11 / psy=1 / psy_rd=1.00:0.00 / mixed_ref=1 / me_range=32 / chroma_me=1 / trellis=2 / 8x8dct=1 / cqm=0 / deadzone=21,11 / fast_pskip=1 / chroma_qp_offset=-2 / threads=6 / lookahead_threads=1 / sliced_threads=0 / nr=0 / decimate=1 / interlaced=0 / bluray_compat=0 / constrained_intra=0 / bframes=6 / b_pyramid=2 / b_adapt=2 / b_bias=0 / direct=3 / weightb=1 / open_gop=0 / weightp=2 / keyint=240 / keyint_min=24 / scenecut=40 / intra_refresh=0 / rc=2pass / mbtree=0 / bitrate=3210 / ratetol=1.0 / qcomp=0.60 / qpmin=0 / qpmax=69 / qpstep=4 / cplxblur=20.0 / qblur=0.5 / ip_ratio=1.40 / pb_ratio=1.30 / aq=1:1.00
Language : Hindi
Default : Yes
Forced : No
Color primaries : BT.709
Transfer characteristics : BT.709
Matrix coefficients : BT.709
Audio #1
ID : 2
Format : AC-3
Format/Info : Audio Coding 3
Mode extension : CM (complete main)
Format settings, Endianness : Big
Codec ID : A_AC3
Duration : 2h 32mn
Bit rate mode : Constant
Bit rate : 448 Kbps
Channel(s) : 6 channels
Channel positions : Front: L C R, Side: L R, LFE
Sampling rate : 48.0 KHz
Bit depth : 16 bits
Compression mode : Lossy
Stream size : 488 MiB (11%)
Title : Многоголосый 5.1
Language : Russian
Default : Yes
Forced : No
Audio #2
ID : 3
Format : AC-3
Format/Info : Audio Coding 3
Mode extension : CM (complete main)
Format settings, Endianness : Big
Codec ID : A_AC3
Duration : 2h 32mn
Bit rate mode : Constant
Bit rate : 448 Kbps
Channel(s) : 6 channels
Channel positions : Front: L C R, Side: L R, LFE
Sampling rate : 48.0 KHz
Bit depth : 16 bits
Compression mode : Lossy
Stream size : 488 MiB (11%)
Title : Хинди 5.1 (Оригинал)
Language : Hindi
Default : No
Forced : No
[Профиль] [ЛС]

Создавать темы 06-Авг-2015 22:54 (спустя 7 месяцев 21 день)

Топик был перенесен из форума Фильмы до 2014 года в форум Фильмы до 2012 года
sergej644
 

Создавать темы 12-Июн-2016 08:51 (спустя 1 год 5 месяцев)

Топик был перенесен из форума Фильмы 2011 года в форум Фильмы 2006-2008 года
Russian Mafia
 
Кто просматривает тему:

Форум Тема Автор Размер
Отечественные мультфильмы Алеша Попович и Тугарин Змей / Добрыня Никитич и Змей Горыныч / Илья Муромец и Соловей Разбойник / Три богатыря и Шамаханская царица / Иван Царевич и Серый Волк / Три богатыря на дальних берегах... reversefile 4.37 GB
Фильмы (HD Rips | 720p, 1080p) Берег моря / Beira-Mar (2015) WEB-DL 720p | L1 достали все 2.19 GB
Фильмы 2015 года Берег моря / Beira-Mar (2015) WEB-DLRip | L1 BOSS 1.44 GB
Фильмы (HD Rips | 720p, 1080p) Берега любви (Андрей Селиванов) [2013, Россия, мелодрама, HDTVRip 720p] TorrentFilm 2.35 GB
Фильмы (HD Rips | 720p, 1080p) Берегись автомобиля (1966) HDTV [1080i] sergej644 4.11 GB
Фильмы (HD Rips | 720p, 1080p) Берегись автомобиля (Эльдар Рязанов) [1966, СССР, мелодрама, комедия, криминал, BDRip 1080p] TorrentFilm 9.25 GB
Фильмы (HD Rips | 720p, 1080p) Берегись автомобиля (Эльдар Рязанов) [1966, СССР, мелодрама, комедия, криминал, BDRip 720p] TorrentFilm 2.94 GB
Фильмы (HD Rips | 720p, 1080p) Берегись автомобиля (Эльдар Рязанов) [1966, СССР, мелодрама, комедия, криминал, Blu-ray Disc 1080p] TorrentFilm 22.9 GB
Показать сообщения:    

Текущее время: Сегодня 01:09

Часовой пояс: GMT



Вы не можете начинать темы
Вы не можете отвечать на сообщения
Вы не можете редактировать свои сообщения
Вы не можете удалять свои сообщения
Вы не можете голосовать в опросах
Вы не можете прикреплять файлы к сообщениям
Вы не можете скачивать файлы