Берегись автомобиля (1966) HDTV [1080i]

 
Автор Сообщение

sergej644 ®

Пол:

Стаж: 4 года 11 месяцев

Сообщений: 6042

Откуда: Soviet Union



Награды: Нет

Торрент-статистика

Создавать темы 25-Июл-2014 23:08

[Цитировать]

-Берегись автомобиля (1966) HDTV [1080i]- Оригинальное название: Берегись автомобиля
Год выпуска: 1966
Производство: СССР, Мосфильм
Жанр: мелодрама, комедия, криминал
Описание фильма: Эта удивительная история вполне может считаться фантастической. Скромный и застенчивый страховой агент, актер самодеятельного театра Юрий Деточкин оказывается непримиримым борцом за справедливость.
Правда, для правосудия, представляемого актером того же театра, а в миру - следователем Подберезовиковым, этот Робин Гуд представляется опасным, хитроумным, изобретательным и неуловимым преступником...

Режиссер: Эльдар Рязанов
Актеры: Иннокентий Смоктуновский, Олег Ефремов, Любовь Добржанская, Анатолий Папанов, Ольга Аросева, Андрей Миронов, Георгий Жжёнов, Евгений Евстигнеев, Донатас Банионис, Любовь Соколова-
Дата мировой премьеры: 3 февраля 196
Релиз на DVD (РФ): 11 января 2011, «Парадиз Медиа»-Продолжительность: 01:27:09
Перевод: оригинал
Субтитры: нет
Качество видео: HDTV
Видео: MPEG-4 AVC, 6232 Кбит/с, 1920x1080
Аудио: Русский: АС3, 2 ch, 384 Кбит/с

MediaInfo 0.7.62

Общее
Уникальный идентификатор                 : 172202074211204182938910337681205990692 (0x818CE9C24A7DCE56A2339E25E0179524)
Полное имя                               :\Beregis.avtomobilya.1966.HDTV_CMEGRoup.mkv
Формат                                   : Matroska
Версия формата                           : Version 2
Размер файла                             : 4,11 Гбайт
Продолжительность                        : 1 ч. 27 м.
Режим общего битрейта                    : Переменный
Общий поток                              : 6751 Кбит/сек
Дата кодирования                         : UTC 2013-03-11 15:41:28
Программа кодирования                    : mkvmerge v5.8.0 ('No Sleep / Pillow') built on Sep  2 2012 15:37:04
Библиотека кодирования                   : libebml v1.2.3 + libmatroska v1.3.0
Видео
Идентификатор                            : 1
Формат                                   : AVC
Формат/Информация                        : Advanced Video Codec
Профиль формата                          : [url=mailto:High@L4.0]High@L4.0[/url]
Параметр CABAC формата                   : Да
Параметр ReFrames формата                : 3 кадра
Идентификатор кодека                     : V_MPEG4/ISO/AVC
Продолжительность                        : 1 ч. 27 м.
Вид битрейта                             : Переменный
Битрейт                                  : 6232 Кбит/сек
Максимальный битрейт                     : 40,0 Мбит/сек
Ширина                                   : 1920 пикселей
Высота                                   : 1080 пикселей
Соотношение сторон                       : 16:9
Режим частоты кадров                     : Постоянный
Частота кадров                           : 25,000 кадров/сек
Стандарт вещания                         : Component
Цветовое пространство                    : YUV
Субдискретизация насыщенности            : 4:2:0
Битовая глубина                          : 8 бит
Тип развёртки                            : Чересстрочная
Порядок развёртки                        : Верхнее поле первое
Бит/(Пиксели*Кадры)                      : 0.120
Размер потока                            : 3,79 Гбайт (92%)
Default                                  : Да
Forced                                   : Нет
Основные цвета                           : BT.709
Характеристики трансфера                 : BT.709
Коэффициенты матрицы                     : BT.709
Аудио
Идентификатор                            : 2
Формат                                   : AC-3
Формат/Информация                        : Audio Coding 3
Расширение режима                        : CM (complete main)
Параметр Endianness формата              : Big
Идентификатор кодека                     : A_AC3
Продолжительность                        : 1 ч. 27 м.
Вид битрейта                             : Постоянный
Битрейт                                  : 384 Кбит/сек
Каналы                                   : 2 канала
Расположение каналов                     : Front: L R
Частота                                  : 48,0 КГц
Битовая глубина                          : 16 бит
Метод сжатия                             : С потерями
Размер потока                            : 239 Мбайт (6%)
Default                                  : Да
Forced                                   : Нет

Знаете ли Вы, что...

Первоначально на роль Деточкина планировался Юрий Никулин, но он вместе с цирком отправился на гастроли в Южную Африку почти на полгода. В результате на роль Деточкина пробовался Олег Ефремов, но в итоге ее отдали Иннокентию Смоктуновскому, а Ефремов сыграл роль Максима Подберезовикова.
Мосфильмовская «Волга» ГАЗ-21, на которой Деточкин ушел от погони, впоследствии стала знаменитым «такси на Дубровку» Папанова (только перекрашенным) в Бриллиантовой руке и машиной-такси героя Ефремова в Трех тополях на Плющихе.
Вальс, звучащий во время погони милиционера за Деточкиным, использует музыкальную фразу из песни «Padam… Padam…». Эта мелодия композитора Андрея Петрова одна из наиболее известных и узнаваемых в мире музыки кино. В репертуаре Сергея Никитина есть песня «Стеклянный Господин» (на стихи Евгения Евтушенко) использующая мотив вальса из фильма «Берегись автомобиля».
В этом фильме Деточкин (Смоктуновский) играет Гамлета в самодеятельности. Примечательно, что Иннокентий Смоктуновский к тому времени уже блестяще сыграл Гамлета в одноименном фильме. Постановка театра самодеятельности использует другой перевод пьесы, М. Лозинского, а не Б. Пастернака.
В эпизоде, где «Волга» Деточкина во время погони задним ходом выезжает с крутой обочины на дорогу, если приглядеться, заметен трос, который вытягивает машину.
В сцене погони Деточкин на большой скорости справа объезжает препятствия в виде стоящего на дороге грузовика (возле него никого нет) и движущегося навстречу автобуса. В следующий миг видно, что грузовик стоит на обочине, а водитель накачивает колесо.
Когда происходит беседа Деточкина с милиционером и тот жалуется на плохой аккумулятор, бордюры то покрашены «в зебру», то нет.
В начале фильма закадровый голос автора утверждает, что не известно в каком городе происходят события. Однако, в сцене беседы в пивбаре, Деточкин произносит фразу о том, что после продажи одной из угнанных машин, он вернулся в… Москву. Следовательно, события фильма разворачиваются в Москве.
Мамой Деточкина в фильме хотели стать актрисы Зелёная и Мансурова, но наиболее убедительная проба получилась у Любови Добржанской.
Специально для съёмок Смоктуновский по настоянию режиссёра сдал на водительские права.
Скриншоты:

--
[Профиль] [ЛС]

Создавать темы 06-Авг-2015 22:05 (спустя 1 год)

Топик был перенесен из форума Кино СССР в форум Фильмы (HD Rips | 720p, 1080p)
sergej644
 
Кто просматривает тему:

Форум Тема Автор Размер
Отечественные мультфильмы Алеша Попович и Тугарин Змей / Добрыня Никитич и Змей Горыныч / Илья Муромец и Соловей Разбойник / Три богатыря и Шамаханская царица / Иван Царевич и Серый Волк / Три богатыря на дальних берегах... reversefile 4.37 GB
Фильмы (HD Rips | 720p, 1080p) Берег моря / Beira-Mar (2015) WEB-DL 720p | L1 достали все 2.19 GB
Фильмы 2015 года Берег моря / Beira-Mar (2015) WEB-DLRip | L1 BOSS 1.44 GB
Фильмы (HD Rips | 720p, 1080p) Берега любви (Андрей Селиванов) [2013, Россия, мелодрама, HDTVRip 720p] TorrentFilm 2.35 GB
Фильмы (HD Rips | 720p, 1080p) Берегись автомобиля (Эльдар Рязанов) [1966, СССР, мелодрама, комедия, криминал, BDRip 1080p] TorrentFilm 9.25 GB
Фильмы (HD Rips | 720p, 1080p) Берегись автомобиля (Эльдар Рязанов) [1966, СССР, мелодрама, комедия, криминал, BDRip 720p] TorrentFilm 2.94 GB
Фильмы (HD Rips | 720p, 1080p) Берегись автомобиля (Эльдар Рязанов) [1966, СССР, мелодрама, комедия, криминал, Blu-ray Disc 1080p] TorrentFilm 22.9 GB
Кино СССР Берегись автомобиля (Эльдар Рязанов)[1966, мелодрама, комедия, криминал, DVDRip] | Реставрация sergej644 1.46 GB
Показать сообщения:    

Текущее время: Сегодня 08:57

Часовой пояс: GMT



Вы не можете начинать темы
Вы не можете отвечать на сообщения
Вы не можете редактировать свои сообщения
Вы не можете удалять свои сообщения
Вы не можете голосовать в опросах
Вы не можете прикреплять файлы к сообщениям
Вы не можете скачивать файлы