Беовульф / Beowulf (Роберт Земекис / Robert Zemeckis) [2007 г., Боевик, фэнтези, драма, приключения, анимация. HDDVDRemux 1080p] [Director's Cut]

 
Автор Сообщение

Russian Mafia ®

Пол:

Стаж: 1 год 8 месяцев

Сообщений: 4247



Награды: 10 (Подробнее)

Mega Seeder 5 (Количество: 1) За внесенный вклад в развитие сайта (Количество: 1) Top Releaser 2 (Количество: 1)
Торрент-статистика

Создавать темы 23-Мар-2016 13:02

[Цитировать]

Беовульф / Beowulf [Director's Cut]- Год выпуска: 2007
Страна: США, Paramount Pictures, Shangri-La Entertainment
Жанр: Боевик, фэнтези, драма, приключения, анимация
Продолжительность: 01:54:42
Перевод: Профессиональный (полное дублирование), многоголосый и одноголосый.
Русские субтитры: есть (srt)-Режиссер: Роберт Земекис / Robert Zemeckis-В ролях: Анджелина Джоли, Рэй Уинстон, Энтони Хопкинс, Криспин Гловер, Робин Райт Пенн, Джон Малкович, Элисон Ломан, Брендан Глисон, Доминик Китинг, Себастьян Рош, Крис Коппола, Шарлотта Солт, Грег Эллис, Надин Стенович, Ник Джеймисон, Эмили Джонсон, Тайлер Стилман, Лесли Хартер Земекис, Рик Янг, Рэнди Шелли, Вуди Шульц-Описание: Приключенческий анимационный фильм, созданный по мотивам одноименного эпоса "Беовульф", в котором рассказывается о подвигах скандинавского героя Беовульфа, освободившего жителей Дании от необузданного злодея Гренделя.
События фильма разворачиваются в ту чудесную эпоху, покрытую туманом прошлого, богатую на героев и монстров, приключения и отвагу, богатство и славу, когда одному исключительному человеку по имени Беовульф удается спасти древнее датское королевство от жуткого чудовища, истребляющего его жителей. После этого сей легендарный викинг ростом почти в два метра, полный дерзости, уверенности и удивительной амбициозности, восходит на трон.
Всё чаще в королевстве звучит имя Беовульфа, о нем слагаются песни, восхваляющие его небывалую доблесть и решительность после того, как он приходит на помощь королю Хродгару, чье королевство подвергается вероломным нападкам Гренделя, беспощадного монстра, который мучает и пожирает жителей королевства, заставляя их жить в вечном ожидании страха и опасности.
Избавляя королевство от безжалостного монстра, Беовульф обретает славу и успех. К его ногам оказываются брошены несметные богатства, но непреодолимые искушения подстерегают его повсюду. То, насколько мудро он сможет распорядиться своей новоприобретенной властью, навсегда определит его судьбу как воина, победителя, как лидера, мужа и, что более важно, как человека.-Тип релиза: HDDVDRemux
Формат: MKV
Видео кодек: H264 / 21815 kbps / 1080p / 23,976 fps / High Profile 4.1
Аудио 1: Русский дубляж / Dolby Digital / 5.1 / 640 kbps / 48 kHz (Blu-ray)
Аудио 2: Русский многоголосый / Dolby Digital / 5.1 / 448 kbps / 48 kHz (Киномания / Позитив)
Аудио 3: Русский одноголосый / Dolby Digital / 5.1 / 448 kbps / 48 kHz (Ю.Немахов)
Аудио 4: Английский / Dolby Digital Plus (E-AC-3) / 5.1 / 1536 kbps / 48 kHz
Cубтитры 1: Русские (BD, SDI Media Group)
Cубтитры 2: Русские (Киномания / Позитив)
Cубтитры 3: Английские
Чаптеры: есть--

MediaInfo

Complete name                    : Beowulf.2007.HDDVD.Director's.Cut.1080p.AVC.3xRus.Eng.mkv
Format                           : Matroska
File size                        : 19.9 GiB
Duration                         : 1h 54mn
Overall bit rate                 : 24.9 Mbps
Movie name                       : HANSMER
Encoded date                     : UTC 2011-06-27 19:38:55
Writing application              : mkvmerge v4.8.0 ('I Got The...') сборка от May 24 2011 03:12:58
Writing library                  : libebml v1.2.0 + libmatroska v1.1.0
[br]
Video
ID                               : 1
Format                           : AVC
Format/Info                      : Advanced Video Codec
Format profile                   : High@L4.1
Format settings, CABAC           : Yes
Format settings, ReFrames        : 2 frames
Format settings, GOP             : M=3, N=12
Muxing mode                      : Container profile=Unknown@0.0
Codec ID                         : V_MPEG4/ISO/AVC
Duration                         : 1h 54mn
Bit rate mode                    : Variable
Bit rate                         : 21.3 Mbps
Maximum bit rate                 : 24.0 Mbps
Width                            : 1 920 pixels
Height                           : 1 080 pixels
Display aspect ratio             : 16:9
Frame rate                       : 23.976 fps
Standard                         : Component
Color space                      : YUV
Chroma subsampling               : 4:2:0
Bit depth                        : 8 bits
Scan type                        : Progressive
Bits/(Pixel*Frame)               : 0.429
Stream size                      : 17.1 GiB (86%)
Title                            : 21815 Kbps
Language                         : English
Color primaries                  : BT.709-5, BT.1361, IEC 61966-2-4, SMPTE RP177
Transfer characteristics         : BT.709-5, BT.1361
Matrix coefficients              : BT.709-5, BT.1361, IEC 61966-2-4 709, SMPTE RP177
[br]
Audio #1
ID                               : 2
Format                           : AC-3
Format/Info                      : Audio Coding 3
Mode extension                   : CM (complete main)
Codec ID                         : A_AC3
Duration                         : 1h 54mn
Bit rate mode                    : Constant
Bit rate                         : 640 Kbps
Channel(s)                       : 6 channels
Channel positions                : Front: L C R, Side: L R, LFE
Sampling rate                    : 48.0 KHz
Bit depth                        : 16 bits
Compression mode                 : Lossy
Stream size                      : 525 MiB (3%)
Title                            : Dub
Language                         : Russian
[br]
Audio #2
ID                               : 3
Format                           : AC-3
Format/Info                      : Audio Coding 3
Mode extension                   : CM (complete main)
Codec ID                         : A_AC3
Duration                         : 1h 54mn
Bit rate mode                    : Constant
Bit rate                         : 448 Kbps
Channel(s)                       : 6 channels
Channel positions                : Front: L C R, Side: L R, LFE
Sampling rate                    : 48.0 KHz
Bit depth                        : 16 bits
Compression mode                 : Lossy
Stream size                      : 368 MiB (2%)
Title                            : MVO - Kinomanija / Pozitiv
Language                         : Russian
[br]
Audio #3
ID                               : 4
Format                           : AC-3
Format/Info                      : Audio Coding 3
Mode extension                   : CM (complete main)
Codec ID                         : A_AC3
Duration                         : 1h 54mn
Bit rate mode                    : Constant
Bit rate                         : 448 Kbps
Channel(s)                       : 6 channels
Channel positions                : Front: L C R, Side: L R, LFE
Sampling rate                    : 48.0 KHz
Bit depth                        : 16 bits
Compression mode                 : Lossy
Stream size                      : 368 MiB (2%)
Title                            : Nemahov
Language                         : Russian
[br]
Audio #4
ID                               : 5
Format                           : E-AC-3
Format/Info                      : Audio Coding 3
Codec ID                         : A_EAC3
Duration                         : 1h 54mn
Bit rate mode                    : Constant
Bit rate                         : 1 536 Kbps
Channel(s)                       : 6 channels
Channel positions                : Front: L C R, Side: L R, LFE
Sampling rate                    : 48.0 KHz
Compression mode                 : Lossy
Stream size                      : 1.23 GiB (6%)
Language                         : English
[br]
Text #1
ID                               : 6
Format                           : UTF-8
Codec ID                         : S_TEXT/UTF8
Codec ID/Info                    : UTF-8 Plain Text
Title                            : SDI Media Group
Language                         : Russian
[br]
Text #2
ID                               : 7
Format                           : UTF-8
Codec ID                         : S_TEXT/UTF8
Codec ID/Info                    : UTF-8 Plain Text
Title                            : Kinomanija / Pozitiv
Language                         : Russian
[br]
Text #3
ID                               : 8
Format                           : UTF-8
Codec ID                         : S_TEXT/UTF8
Codec ID/Info                    : UTF-8 Plain Text
Language                         : English
[br]
Menu
00:00:00.000                     : en:00:00:00.000
00:05:33.334                     : en:00:05:33.334
00:11:58.719                     : en:00:11:58.719
00:17:30.217                     : en:00:17:30.217
00:21:26.119                     : en:00:21:26.119
00:28:47.226                     : en:00:28:47.226
00:34:10.216                     : en:00:34:10.216
00:38:07.119                     : en:00:38:07.119
00:43:59.471                     : en:00:43:59.471
00:49:10.782                     : en:00:49:10.782
00:52:33.651                     : en:00:52:33.651
00:55:44.342                     : en:00:55:44.342
01:02:38.422                     : en:01:02:38.422
01:08:38.282                     : en:01:08:38.282
01:13:06.216                     : en:01:13:06.216
01:19:20.423                     : en:01:19:20.423
01:23:59.535                     : en:01:23:59.535
01:26:50.206                     : en:01:26:50.206
01:31:19.475                     : en:01:31:19.475
01:34:21.991                     : en:01:34:21.991
01:38:09.218                     : en:01:38:09.218
01:42:52.501                     : en:01:42:52.501
01:45:52.013                     : en:01:45:52.013
[Профиль] [ЛС]
Кто просматривает тему:

Форум Тема Автор Размер
Фильмы (HD Rips | 720p, 1080p) Беовульф / Beowulf (2007) BDRip 1080p от NNNB | Director's Cut | D,P,A Russian Mafia 7.75 GB
Фильмы 2011 года Беовульф / Beowulf (Роберт Земекис / Robert Zemeckis) [2007 г., Боевик, фэнтези, драма, приключения, анимация, HD-DVDRip] [Режиссёрская версия / Director's Cut] Dub Russian Mafia 1.46 GB
Фильмы (HD Rips | 720p, 1080p) Беовульф / Beowulf (Роберт Земекис / Robert Zemeckis) [2007, США, фэнтези, боевик, драма, приключения, анимация, BDRip 720p] [Director's Cut] Dub + MVO (Киномания / Позитив) + AVO (Немахов) +... Russian Mafia 6.19 GB
Зарубежные сериалы Беовульф / Beowulf: Return to the ShieldLands [01х01-12 из 13] (2016) WEB-DL 1080p | BaibaKo Russian Mafia 22.47 GB
Фильмы 2011 года Беовульф / Биоволк / Beowulf (Грэм Бейкер / Graham Baker) [1999, США, Великобритания, ужасы, фантастика, фэнтези, боевик, DVDRip] Dub Russian Mafia 1.46 GB
Зарубежные Беовульф в 3Д / Beowulf 3D (Роберт Земекис / Robert Zemeckis) [2007, Мультфильм, Фэнтези, Боевик, Драма, Приключения, BDRemux, 1080p] BD3D Russian Mafia 28.92 GB
Зарубежные Беовульф в 3Д / Beowulf 3D (Роберт Земекис / Robert Zemeckis) [2007, фэнтези, боевик, драма, приключения, анимация, PSNrip-AVC] Half SideBySide / Горизонтальная анаморфная стереопара TorrentFilm 5.08 GB
Показать сообщения:    

Текущее время: Сегодня 22:09

Часовой пояс: GMT



Вы не можете начинать темы
Вы не можете отвечать на сообщения
Вы не можете редактировать свои сообщения
Вы не можете удалять свои сообщения
Вы не можете голосовать в опросах
Вы не можете прикреплять файлы к сообщениям
Вы не можете скачивать файлы