Беовульф / Биоволк / Beowulf (Грэм Бейкер / Graham Baker) [1999, США, Великобритания, ужасы, фантастика, фэнтези, боевик, DVDRip] Dub

 
Автор Сообщение

Russian Mafia ®

Пол:

Стаж: 1 год 8 месяцев

Сообщений: 4256



Награды: 10 (Подробнее)

Top Releaser 5 (Количество: 1) За внесенный вклад в развитие сайта (Количество: 1) Mega Seeder 4 (Количество: 1)
Торрент-статистика

Создавать темы 23-Мар-2016 13:05

[Цитировать]

Беовульф / Биоволк / Beowulf
Страна: США, Великобритания
Жанр: ужасы, фантастика, фэнтези, боевик
Год выпуска: 1999
Продолжительность: 01:29:06
-
Перевод: Профессиональный (дублированный)
Cубтитры: нет

-
Режиссер: Грэм Бейкер / Graham Baker
В ролях: Кристофер Ламберт, Рона Митра, Оливер Коттон, Гёц Отто, Винсент Хэммонд, Чарльз Робинсон, Брент Джеффресон Лоу, Роджер Сломан, Лайла Робертс, Роберт Уиллокс
-
Описание: В далеком будущем, после мирового катаклизма, у человека слишком много врагов и слишком мало шансов, чтобы выжить. Единственное спасение для мирных жителей — создавать крепости. Но когда последняя крепость рухнет под натиском сил Тьмы, останется одна-единственная надежда на спасение — неуловимый и бесстрашный Беовульф.
-

-
Качество видео: DVDRip (DVD5)
Формат видео: AVI
Видео: 704x512 (1.38:1), 25 fps, XviD build 65 ~1885 kbps avg, 0.21 bit/pixel
Аудио: 48 kHz, AC3 Dolby Digital, 3/2 (L,C,R,l,r) + LFE ch, ~448 kbps

MediaInfo

General
Complete name : D:\Релизы\Beowulf.1999.RUS.DVDRip.XviD.AC3.avi
Format : AVI
Format/Info : Audio Video Interleave
File size : 1.46 GiB
Duration : 1h 29mn
Overall bit rate : 2 344 Kbps
Writing application : VirtualDubMod 1.5.10.2 (build 2540/release)
Writing library : VirtualDubMod build 2540/release
Video
ID : 0
Format : MPEG-4 Visual
Format profile : Advanced Simple@L5
Format settings, BVOP : 1
Format settings, QPel : No
Format settings, GMC : No warppoints
Format settings, Matrix : Custom
Codec ID : XVID
Codec ID/Hint : XviD
Duration : 1h 29mn
Bit rate : 1 886 Kbps
Width : 704 pixels
Height : 512 pixels
Display aspect ratio : 1.375
Frame rate : 25.000 fps
Color space : YUV
Chroma subsampling : 4:2:0
Bit depth : 8 bits
Scan type : Progressive
Compression mode : Lossy
Bits/(Pixel*Frame) : 0.209
Stream size : 1.17 GiB (80%)
Writing library : XviD 65
Audio
ID : 1
Format : AC-3
Format/Info : Audio Coding 3
Mode extension : CM (complete main)
Format settings, Endianness : Big
Codec ID : 2000
Duration : 1h 29mn
Bit rate mode : Constant
Bit rate : 448 Kbps
Channel(s) : 6 channels
Channel positions : Front: L C R, Side: L R, LFE
Sampling rate : 48.0 KHz
Bit depth : 16 bits
Compression mode : Lossy
Stream size : 286 MiB (19%)
Alignment : Split accross interleaves
Interleave, duration : 40 ms (1.00 video frame)
Interleave, preload duration : 500 ms

Скриншоты

[Профиль] [ЛС]
Кто просматривает тему:

Форум Тема Автор Размер
Фильмы (HD Rips | 720p, 1080p) Беовульф / Beowulf (2007) BDRip 1080p от NNNB | Director's Cut | D,P,A Russian Mafia 7.75 GB
Фильмы 2011 года Беовульф / Beowulf (Роберт Земекис / Robert Zemeckis) [2007 г., Боевик, фэнтези, драма, приключения, анимация, HD-DVDRip] [Режиссёрская версия / Director's Cut] Dub Russian Mafia 1.46 GB
Фильмы (HD DVD, Blu-ray и BDRemux) Беовульф / Beowulf (Роберт Земекис / Robert Zemeckis) [2007 г., Боевик, фэнтези, драма, приключения, анимация. HDDVDRemux 1080p] [Director's Cut] Russian Mafia 19.94 GB
Фильмы (HD Rips | 720p, 1080p) Беовульф / Beowulf (Роберт Земекис / Robert Zemeckis) [2007, США, фэнтези, боевик, драма, приключения, анимация, BDRip 720p] [Director's Cut] Dub + MVO (Киномания / Позитив) + AVO (Немахов) +... Russian Mafia 6.19 GB
Зарубежные сериалы Беовульф / Beowulf: Return to the ShieldLands [01х01-12 из 13] (2016) WEB-DL 1080p | BaibaKo Russian Mafia 22.47 GB
Зарубежные Беовульф в 3Д / Beowulf 3D (Роберт Земекис / Robert Zemeckis) [2007, Мультфильм, Фэнтези, Боевик, Драма, Приключения, BDRemux, 1080p] BD3D Russian Mafia 28.92 GB
Зарубежные Беовульф в 3Д / Beowulf 3D (Роберт Земекис / Robert Zemeckis) [2007, фэнтези, боевик, драма, приключения, анимация, PSNrip-AVC] Half SideBySide / Горизонтальная анаморфная стереопара TorrentFilm 5.08 GB
Показать сообщения:    

Текущее время: Сегодня 20:32

Часовой пояс: GMT



Вы не можете начинать темы
Вы не можете отвечать на сообщения
Вы не можете редактировать свои сообщения
Вы не можете удалять свои сообщения
Вы не можете голосовать в опросах
Вы не можете прикреплять файлы к сообщениям
Вы не можете скачивать файлы