Беовульф в 3Д / Beowulf 3D (Роберт Земекис / Robert Zemeckis) [2007, фэнтези, боевик, драма, приключения, анимация, PSNrip-AVC] Half SideBySide / Горизонтальная анаморфная стереопара

 
Автор Сообщение

TorrentFilm ®

Пол:

Стаж: 1 год 11 месяцев

Сообщений: 7741



Награды: Нет

Торрент-статистика

Создавать темы 01-Янв-2016 00:21

[Цитировать]

Беовульф / Beowulf (REAL 3D)
Год выпуска: 2007
Страна: США
Студия: Paramount pictures
Жанр: фэнтези, боевик, драма, приключения, анимация
Продолжительность: 01:53:59
Перевод: Профессиональный (дублированный)
Русские субтитры: нет
Режиссер на русском: Роберт Земекис
В ролях: Рэй Уинстон (Beowulf / Golden Man / Dragon), Энтони Хопкинс (Hrothgar), Робин Райт (Wealthow), Джон Малкович (Unferth), Криспин Гловер (Grendel), Брендан Глисон (Wiglaf), Анджелина Джоли (Grendel's Mother), Костас Мэндилор (Hondshew), Пол Бэйкер (Musician #1), Джон Билезикджян (Musician #2), Род Д. Харбор (Musician #3), Брайс Мартин (Musician #4)
Описание: События фильма разворачиваются в ту чудесную эпоху, покрытую туманом прошлого, богатую на героев и монстров, приключения и отвагу, богатство и славу, когда одному исключительному человеку по имени Беовульф удается спасти древнее датское королевство от жуткого чудовища, истребляющего его жителей. После этого сей легендарный викинг ростом почти в два метра, полный дерзости, уверенности и удивительной амбициозности, восходит на трон.
Всё чаще в королевстве звучит имя Беовульфа, о нем слагаются песни, восхваляющие его небывалую доблесть и решительность после того, как он приходит на помощь королю Хродгару, чье королевство подвергается вероломным нападкам Гренделя, беспощадного монстра, который мучает и пожирает жителей королевства, заставляя их жить в вечном ожидании страха и опасности.
Избавляя королевство от безжалостного монстра, Беовульф обретает славу и успех. К его ногам оказываются брошены несметные богатства, но непреодолимые искушения подстерегают его повсюду. То, насколько мудро он сможет распорядиться своей новоприобретенной властью, навсегда определит его судьбу как воина, победителя, как лидера, мужа и, что более важно, как человека.
Качество: PSNrip
Контейнер: MKV
Формат 3D: Half SideBySide / Горизонтальная анаморфная стереопара
Порядок ракурсов: левый ракурс первый
Видео кодек: h.264
Аудио кодек: AC3
Видео: MPEG4 Video (H264) 1920x1080 30fps 6 000 Kbps
Аудио: Русский / Дубляж Dolby AC3 48000Hz 6ch 384 Kbps
ВНИМАНИЕ! All credits goes to FS-3D.com's m8s: Vulkan, "Unseen Capper", StreetPreacher.
За русскую дорожку большое спасибо Boss-Master-у !
По вопросам качества - это единственный вариант реального 3D, который есть в данный момент.
Выход BD3D на данный момент не анонсирован и когда будет - не известно.

MediaInfo

General
Format : Matroska
Format version : Version 2
File size : 5.08 GiB
Duration : 1h 53mn
Overall bit rate : 6 377 Kbps
Movie name : Beowulf.2007.HDDVD.Director's.Cut.720p.x264-NiP
Encoded date : UTC 2013-09-08 17:23:37
Writing application : mkvmerge v4.4.0 ('Die Wiederkehr') сборка от Oct 31 2010 21:52:48
Writing library : libebml v1.0.0 + libmatroska v1.0.0
Video
ID : 1
Format : AVC
Format/Info : Advanced Video Codec
Format profile : Baseline@L4.0
Format settings, CABAC : No
Format settings, ReFrames : 1 frame
Format settings, GOP : M=1, N=12
Codec ID : V_MPEG4/ISO/AVC
Duration : 1h 53mn
Bit rate : 6 000 Kbps
Width : 1 920 pixels
Height : 1 080 pixels
Display aspect ratio : 16:9
Frame rate mode : Constant
Frame rate : 30.000 fps
Color space : YUV
Chroma subsampling : 4:2:0
Bit depth : 8 bits
Scan type : Progressive
Bits/(Pixel*Frame) : 0.096
Stream size : 4.67 GiB (92%)
Writing library : x264 core 120
Encoding settings : cabac=0 / ref=1 / deblock=1:0:0 / analyse=0x1:0x111 / me=dia / subme=7 / psy=1 / psy_rd=1.00:0.00 / mixed_ref=0 / me_range=4 / chroma_me=0 / trellis=0 / 8x8dct=0 / cqm=0 / deadzone=21,11 / fast_pskip=1 / chroma_qp_offset=-2 / threads=8 / sliced_threads=0 / nr=0 / decimate=1 / interlaced=0 / bluray_compat=0 / constrained_intra=0 / bframes=0 / weightp=0 / keyint=12 / keyint_min=7 / scenecut=0 / intra_refresh=0 / rc_lookahead=12 / rc=abr / mbtree=1 / bitrate=6000 / ratetol=1.0 / qcomp=0.50 / qpmin=3 / qpmax=51 / qpstep=3 / ip_ratio=1.40 / aq=1:1.00
Language : English
Default : Yes
Forced : No
Audio
ID : 2
Format : AC-3
Format/Info : Audio Coding 3
Mode extension : CM (complete main)
Format settings, Endianness : Big
Codec ID : A_AC3
Duration : 1h 53mn
Bit rate mode : Constant
Bit rate : 384 Kbps
Channel(s) : 6 channels
Channel positions : Front: L C R, Side: L R, LFE
Sampling rate : 48.0 KHz
Bit depth : 16 bits
Compression mode : Lossy
Stream size : 313 MiB (6%)
Default : Yes
Forced : No

Скриншоты

Анимированные скриншоты


[Профиль] [ЛС]
Кто просматривает тему:

Форум Тема Автор Размер
Фильмы (HD Rips | 720p, 1080p) Беовульф / Beowulf (2007) BDRip 1080p от NNNB | Director's Cut | D,P,A Russian Mafia 7.75 GB
Фильмы 2011 года Беовульф / Beowulf (Роберт Земекис / Robert Zemeckis) [2007 г., Боевик, фэнтези, драма, приключения, анимация, HD-DVDRip] [Режиссёрская версия / Director's Cut] Dub Russian Mafia 1.46 GB
Фильмы (HD DVD, Blu-ray и BDRemux) Беовульф / Beowulf (Роберт Земекис / Robert Zemeckis) [2007 г., Боевик, фэнтези, драма, приключения, анимация. HDDVDRemux 1080p] [Director's Cut] Russian Mafia 19.94 GB
Фильмы (HD Rips | 720p, 1080p) Беовульф / Beowulf (Роберт Земекис / Robert Zemeckis) [2007, США, фэнтези, боевик, драма, приключения, анимация, BDRip 720p] [Director's Cut] Dub + MVO (Киномания / Позитив) + AVO (Немахов) +... Russian Mafia 6.19 GB
Зарубежные сериалы Беовульф / Beowulf: Return to the ShieldLands [01х01-12 из 13] (2016) WEB-DL 1080p | BaibaKo Russian Mafia 22.47 GB
Фильмы 2011 года Беовульф / Биоволк / Beowulf (Грэм Бейкер / Graham Baker) [1999, США, Великобритания, ужасы, фантастика, фэнтези, боевик, DVDRip] Dub Russian Mafia 1.46 GB
Зарубежные Беовульф в 3Д / Beowulf 3D (Роберт Земекис / Robert Zemeckis) [2007, Мультфильм, Фэнтези, Боевик, Драма, Приключения, BDRemux, 1080p] BD3D Russian Mafia 28.92 GB
Показать сообщения:    

Текущее время: Сегодня 09:55

Часовой пояс: GMT



Вы не можете начинать темы
Вы не можете отвечать на сообщения
Вы не можете редактировать свои сообщения
Вы не можете удалять свои сообщения
Вы не можете голосовать в опросах
Вы не можете прикреплять файлы к сообщениям
Вы не можете скачивать файлы