Белый тигр (Карен Шахназаров) [2012, Россия, военный, BDRip 720p]

 
Автор Сообщение

TorrentFilm ®

Пол:

Стаж: 2 года

Сообщений: 7741



Награды: Нет

Торрент-статистика

Создавать темы 01-Янв-2016 00:06

[Цитировать]

-Белый тигр
«Охота на стального монстра.»
- Год выхода: 2012
Выпущено: Россия / Первый канал, Мосфильм
Жанр: военный
Продолжительность: 01:48:43
Перевод: Не требуется |Лицензия|
Субтитры: нет-Режиссер:
Карен Шахназаров-В ролях:
Виталий Кищенко, Алексей Вертков, Владимир Ильин, Александр Вахов, Виталий Дорджиев, Валерий Гришко, Кристиан Редль, Карл Кранцковски, Леонид Орлов, Дмитрий Быковский-Ромашов-О фильме:
Вторая Мировая война подходит к концу. Тяжелые затяжные бои изматывают обе стороны. Но чем увереннее наступают советские войска, тем чаще на полях сражений появляется огромным неуязвимый немецкий танк «Белый Тигр». Внезапно возникает он в дыму сражений, безжалостно расстреливает своих противников и неожиданно исчезает. Советское командование решает для борьбы с «Белым Тигром» создать особый танк — специальную модель Т-34.- | | -Качество: BDRip 720р
Формат: MKV
Видео кодек: x.264
Аудио кодек: AC3
Видео: 6000 Кбит/сек, 1280х692, 23,976 кадр/сек
Аудио: 640 kb/s (6 ch), 48,0 КГц
Дополнительно: Сохранены оригинальные чаптеры как на Blu-ray.
-

Скриншоты

MediaInfo

Формат : Matroska
Версия формата : Version 2
Размер файла : 5,04 Гбайт
Продолжительность : 1 ч. 48 м.
Общий поток : 6637 Кбит/сек
Название фильма : Andrei
Дата кодирования : UTC 2012-06-11 12:34:25
Программа кодирования : mkvmerge v4.6.0 ('Still Crazy After All These Years') сборка от Mar 10 2011 02:50:32
Библиотека кодирования : libebml v1.2.0 + libmatroska v1.1.0
Видео
Идентификатор : 1
Формат : AVC
Формат/Информация : Advanced Video Codec
Профиль формата : High@L4.1
Параметр CABAC формата : Да
Параметр ReFrames формата : 9 кадров
Идентификатор кодека : V_MPEG4/ISO/AVC
Продолжительность : 1 ч. 48 м.
Битрейт : 6000 Кбит/сек
Ширина : 1280 пикселей
Высота : 692 пикселя
Соотношение сторон : 1,85:1
Частота кадров : 23,976 кадра/сек
Цветовое пространство : YUV
Субдискретизация насыщенности : 4:2:0
Битовая глубина : 8 бит
Тип развёртки : Прогрессивная
Бит/(Пиксели*Кадры) : 0.283
Размер потока : 4,45 Гбайт (88%)
Заголовок : Belyj.tigr.2012.720p.BluRay.Rus
Библиотека кодирования : x264 core 120 r2164 da19765
Настройки программы : cabac=1 / ref=9 / deblock=1:-3:-3 / analyse=0x3:0x113 / me=umh / subme=11 / psy=1 / psy_rd=1.00:0.15 / mixed_ref=1 / me_range=64 / chroma_me=1 / trellis=2 / 8x8dct=1 / cqm=0 / deadzone=21,11 / fast_pskip=0 / chroma_qp_offset=-3 / threads=12 / sliced_threads=0 / nr=0 / decimate=1 / interlaced=0 / bluray_compat=0 / constrained_intra=0 / bframes=8 / b_pyramid=2 / b_adapt=2 / b_bias=0 / direct=3 / weightb=1 / open_gop=0 / weightp=2 / keyint=240 / keyint_min=23 / scenecut=40 / intra_refresh=0 / rc=2pass / mbtree=0 / bitrate=6000 / ratetol=1.0 / qcomp=0.60 / qpmin=0 / qpmax=69 / qpstep=4 / cplxblur=20.0 / qblur=0.5 / ip_ratio=1.40 / pb_ratio=1.30 / aq=1:0.80
Язык : Russian
Default : Да
Forced : Нет
Аудио
Идентификатор : 2
Формат : AC-3
Формат/Информация : Audio Coding 3
Расширение режима : CM (complete main)
Параметр Endianness формата : Big
Идентификатор кодека : A_AC3
Продолжительность : 1 ч. 48 м.
Вид битрейта : Постоянный
Битрейт : 640 Кбит/сек
Каналы : 6 каналов
Расположение каналов : Front: L C R, Side: L R, LFE
Частота : 48,0 КГц
Битовая глубина : 16 бит
Метод сжатия : С потерями
Размер потока : 498 Мбайт (10%)
Заголовок : AC3 / 5.1 / 640 Kbps
Язык : Russian
Default : Да
Forced : Нет
Меню
00:00:00.000 : :Chapter 01
00:06:31.057 : :Chapter 02
00:14:22.653 : :Chapter 03
00:23:08.762 : :Chapter 04
00:33:38.308 : :Chapter 05
00:46:51.267 : :Chapter 06
00:56:08.991 : :Chapter 07
01:05:15.453 : :Chapter 08
01:17:30.896 : :Chapter 09
01:22:59.683 : :Chapter 10
01:32:23.747 : :Chapter 11
01:41:08.646 : :Chapter 12
[Профиль] [ЛС]
Показать сообщения:    

Текущее время: Сегодня 14:34

Часовой пояс: GMT



Вы не можете начинать темы
Вы не можете отвечать на сообщения
Вы не можете редактировать свои сообщения
Вы не можете удалять свои сообщения
Вы не можете голосовать в опросах
Вы не можете прикреплять файлы к сообщениям
Вы не можете скачивать файлы