Белый тигр (Карен Шахназаров) [2012, Россия, военный, Blu-ray disc 1080p] Original Rus

 
Автор Сообщение

TorrentFilm ®

Пол:

Стаж: 2 года

Сообщений: 7741



Награды: Нет

Торрент-статистика

Создавать темы 01-Янв-2016 00:06

[Цитировать]

Белый тигр Страна: Россия
Жанр: военный
Год выпуска: 2012
Продолжительность: 01:48:43
Перевод: Не требуется
Cубтитры: нет
Оригинальная аудиодорожка: русский
Режиссер: Карен Шахназаров
В ролях: Алексей Вертков, Виталий Кищенко, Валерий Гришко, Дмитрий Быковский-Ромашов, Герасим Архипов, Александр Вахов, Виталий Дорджиев, Владимир Ильин, Карл Кранцковски, Кристиан Редль
Описание: Вторая Мировая война подходит к концу. Тяжелые затяжные бои изматывают обе стороны. Но чем увереннее наступают советские войска, тем чаще на полях сражений появляется огромным неуязвимый немецкий танк «Белый Тигр».
Внезапно возникает он в дыму сражений, безжалостно расстреливает своих противников и неожиданно исчезает. Советское командование решает для борьбы с «Белым Тигром» создать особый танк — специальную модель Т-34—85.
Доп. информация:
Релиз подготовил: crazy_gringo
Премьера РФ: 3 мая 2012 года

Бонусы:
По следам Тигра
В Окружении
Фотоальбом
Фильмографии

Меню: есть, русский, анимированное
Сэмпл
Тип релиза: Blu-ray disc (BD50) 1080p
Контейнер: BDMV
Видео: MPEG-4 AVC Video 19934 kbps 1080p / 23,976 fps / 16:9 / High Profile 4.1
Аудио: DTS-HD Master Audio Russian 5.1 / 48 kHz / 3904 kbps / 24-bit (DTS Core: 5.1 / 48 kHz / 1509 kbps / 24-bit)
Аудио 2: Dolby Digital Audio Russian 5.1 / 48 kHz / 448 kbps
Аудио 3: LPCM Audio Russian 2.0 / 48 kHz / 2304 kbps / 24-bit
Формат субтитров: СС (Closed Captions)-Релиз: -

BDInfo

Disc Title: WHITE_TIGER_HDCLUB
Disc Size: 36 755 383 134 bytes
Protection: AACS
BD-Java: No
BDInfo: 0.5.6
Notes:
BDINFO HOME:
Cinema Squid
http://www.cinemasquid.com/blu-ray/tools/bdinfo
INCLUDES FORUMS REPORT FOR:
AVS Forum Blu-ray Audio and Video Specifications Thread
http://www.avsforum.com/avs-vb/showthread.php?t=1155731
********************
PLAYLIST: 00002.MPLS
********************
Total   Video
Title                                                           Codec   Length  Movie Size      Disc Size       Bitrate Bitrate Main Audio Track                          Secondary Audio Track
-----                                                           ------  ------- --------------  --------------  ------- ------- ------------------                        ---------------------
00002.MPLS                                                      AVC     1:48:43 22 932 996 096  36 755 383 134  28,12   19,93   DTS-HD Master 5.1 3904Kbps (48kHz/24-bit) DD AC3 5.1 448Kbps
DISC INFO:
Disc Title:     WHITE_TIGER_HDCLUB
Disc Size:      36 755 383 134 bytes
Protection:     AACS
BD-Java:        No
BDInfo:         0.5.6
PLAYLIST REPORT:
Name:                   00002.MPLS
Length:                 1:48:43 (h:m:s)
Size:                   22 932 996 096 bytes
Total Bitrate:          28,12 Mbps
VIDEO:
Codec                   Bitrate             Description
-----                   -------             -----------
MPEG-4 AVC Video        19934 kbps          1080p / 23,976 fps / 16:9 / High Profile 4.1
AUDIO:
Codec                           Language        Bitrate         Description
-----                           --------        -------         -----------
DTS-HD Master Audio             Russian         3904 kbps       5.1 / 48 kHz / 3904 kbps / 24-bit (DTS Core: 5.1 / 48 kHz / 1509 kbps / 24-bit)
Dolby Digital Audio             Russian         448 kbps        5.1 / 48 kHz / 448 kbps
LPCM Audio                      Russian         2304 kbps       2.0 / 48 kHz / 2304 kbps / 24-bit
FILES:
Name            Time In         Length          Size            Total Bitrate
----            -------         ------          ----            -------------
00006.M2TS      0:00:00.000     1:48:43.183     22 932 996 096  28 125
CHAPTERS:
Number          Time In         Length          Avg Video Rate  Max 1-Sec Rate  Max 1-Sec Time  Max 5-Sec Rate  Max 5-Sec Time  Max 10Sec Rate  Max 10Sec Time  Avg Frame Size  Max Frame Size  Max Frame Time
------          -------         ------          --------------  --------------  --------------  --------------  --------------  --------------  --------------  --------------  --------------  --------------
1               0:00:00.000     0:06:31.057     20 569 kbps     31 034 kbps     00:00:25.608    27 516 kbps     00:00:30.405    26 213 kbps     00:00:29.571    107 225 bytes   652 182 bytes   00:00:26.443
2               0:06:31.057     0:07:51.596     21 710 kbps     25 438 kbps     00:11:43.994    24 465 kbps     00:10:44.310    24 373 kbps     00:10:44.310    113 186 bytes   270 113 bytes   00:11:23.891
3               0:14:22.653     0:08:46.108     17 320 kbps     26 069 kbps     00:19:31.378    24 657 kbps     00:16:41.667    23 667 kbps     00:17:49.777    90 300 bytes    324 322 bytes   00:22:14.499
4               0:23:08.762     0:10:29.545     20 173 kbps     29 093 kbps     00:26:44.519    27 496 kbps     00:25:20.852    26 326 kbps     00:25:19.893    105 174 bytes   449 223 bytes   00:26:44.769
5               0:33:38.307     0:13:12.958     21 345 kbps     38 237 kbps     00:36:29.353    30 016 kbps     00:36:26.225    27 293 kbps     00:36:24.473    111 285 bytes   492 938 bytes   00:35:29.502
6               0:46:51.266     0:09:17.723     21 141 kbps     33 126 kbps     00:55:35.957    25 999 kbps     00:55:48.261    25 112 kbps     00:55:35.498    110 222 bytes   410 268 bytes   00:55:39.377
7               0:56:08.990     0:09:06.462     21 283 kbps     31 274 kbps     00:57:53.636    26 488 kbps     00:57:04.212    25 075 kbps     00:57:24.858    110 959 bytes   458 264 bytes   00:58:22.165
8               1:05:15.453     0:12:15.443     21 477 kbps     25 803 kbps     01:13:50.884    24 904 kbps     01:11:55.311    23 754 kbps     01:06:28.067    111 973 bytes   324 732 bytes   01:08:50.876
9               1:17:30.896     0:05:28.786     22 529 kbps     25 409 kbps     01:17:43.533    24 332 kbps     01:22:28.401    24 244 kbps     01:22:23.897    117 455 bytes   220 043 bytes   01:19:31.475
10              1:22:59.683     0:09:24.063     19 162 kbps     26 872 kbps     01:28:26.801    24 504 kbps     01:24:35.987    23 904 kbps     01:23:14.739    99 902 bytes    359 648 bytes   01:29:19.854
11              1:32:23.746     0:08:44.899     20 472 kbps     29 965 kbps     01:32:29.877    28 425 kbps     01:32:27.458    27 658 kbps     01:32:26.457    106 733 bytes   446 403 bytes   01:41:08.645
12              1:41:08.645     0:07:34.537     10 639 kbps     28 929 kbps     01:41:16.236    27 970 kbps     01:41:14.485    27 057 kbps     01:41:12.608    55 470 bytes    471 873 bytes   01:41:14.651
STREAM DIAGNOSTICS:
File            PID             Type            Codec           Language                Seconds                 Bitrate                 Bytes           Packets
----            ---             ----            -----           --------                --------------          --------------          -------------   -----
00006.M2TS      4113 (0x1011)   0x1B            AVC                                     6523,100                19 934                  16 254 288 336  88 429 846
00006.M2TS      4352 (0x1100)   0x86            DTS-HD MA       rus (Russian)           6523,100                3 904                   3 183 442 896   18 318 830
00006.M2TS      4353 (0x1101)   0x81            AC3             rus (Russian)           6523,100                448                     365 293 824     2 038 470
00006.M2TS      4354 (0x1102)   0x80            LPCM            rus (Russian)           6523,100                2 310                   1 883 874 168   10 436 976
QUICK SUMMARY:
Disc Title: WHITE_TIGER_HDCLUB
Disc Size: 36 755 383 134 bytes
Protection: AACS
BD-Java: No
Playlist: 00002.MPLS
Size: 22 932 996 096 bytes
Length: 1:48:43
Total Bitrate: 28,12 Mbps
Video: MPEG-4 AVC Video / 19934 kbps / 1080p / 23,976 fps / 16:9 / High Profile 4.1
Audio: Russian / DTS-HD Master Audio / 5.1 / 48 kHz / 3904 kbps / 24-bit (DTS Core: 5.1 / 48 kHz / 1509 kbps / 24-bit)
Audio: Russian / Dolby Digital Audio / 5.1 / 48 kHz / 448 kbps
Audio: Russian / LPCM Audio / 2.0 / 48 kHz / 2304 kbps / 24-bit
********************
PLAYLIST: 00004.MPLS
********************
Total   Video
Title                                                           Codec   Length  Movie Size      Disc Size       Bitrate Bitrate Main Audio Track                          Secondary Audio Track
-----                                                           ------  ------- --------------  --------------  ------- ------- ------------------                        ---------------------
00004.MPLS                                                      AVC     0:44:23 8 562 296 832   36 755 383 134  25,72   19,28   LPCM 2.0 1536Kbps (48kHz/16-bit)          LPCM 2.0 1536Kbps (48kHz/16-bit)
DISC INFO:
Disc Title:     WHITE_TIGER_HDCLUB
Disc Size:      36 755 383 134 bytes
Protection:     AACS
BD-Java:        No
BDInfo:         0.5.6
PLAYLIST REPORT:
Name:                   00004.MPLS
Length:                 0:44:23 (h:m:s)
Size:                   8 562 296 832 bytes
Total Bitrate:          25,72 Mbps
VIDEO:
Codec                   Bitrate             Description
-----                   -------             -----------
MPEG-4 AVC Video        19276 kbps          1080p / 23,976 fps / 16:9 / High Profile 4.1
AUDIO:
Codec                           Language        Bitrate         Description
-----                           --------        -------         -----------
LPCM Audio                      Russian         1536 kbps       2.0 / 48 kHz / 1536 kbps / 16-bit
LPCM Audio                      Russian         1536 kbps       2.0 / 48 kHz / 1536 kbps / 16-bit
LPCM Audio                      Russian         1536 kbps       2.0 / 48 kHz / 1536 kbps / 16-bit
FILES:
Name            Time In         Length          Size            Total Bitrate
----            -------         ------          ----            -------------
00008.M2TS      0:00:00.000     0:44:23.619     8 562 296 832   25 716
CHAPTERS:
Number          Time In         Length          Avg Video Rate  Max 1-Sec Rate  Max 1-Sec Time  Max 5-Sec Rate  Max 5-Sec Time  Max 10Sec Rate  Max 10Sec Time  Avg Frame Size  Max Frame Size  Max Frame Time
------          -------         ------          --------------  --------------  --------------  --------------  --------------  --------------  --------------  --------------  --------------  --------------
1               0:00:00.000     0:05:01.301     17 916 kbps     44 642 kbps     00:00:01.459    25 364 kbps     00:00:00.166    24 299 kbps     00:03:13.484    93 394 bytes    400 510 bytes   00:04:06.537
2               0:05:01.301     0:04:59.465     21 277 kbps     35 346 kbps     00:09:19.308    26 859 kbps     00:09:16.639    25 792 kbps     00:09:11.634    110 929 bytes   395 666 bytes   00:09:18.015
3               0:10:00.766     0:05:00.758     20 881 kbps     30 699 kbps     00:10:56.072    27 189 kbps     00:10:55.529    24 520 kbps     00:10:55.529    108 863 bytes   492 385 bytes   00:10:56.572
4               0:15:01.525     0:05:00.216     20 005 kbps     47 028 kbps     00:16:21.230    26 500 kbps     00:16:20.979    23 832 kbps     00:16:20.980    104 296 bytes   586 927 bytes   00:16:07.591
5               0:20:01.742     0:05:00.049     21 389 kbps     37 245 kbps     00:20:58.548    25 416 kbps     00:24:56.745    24 455 kbps     00:24:51.740    111 510 bytes   718 445 bytes   00:24:51.781
6               0:25:01.791     0:05:00.925     20 289 kbps     36 583 kbps     00:29:19.299    29 957 kbps     00:29:18.631    27 271 kbps     00:29:14.627    105 776 bytes   665 222 bytes   00:28:51.646
7               0:30:02.717     0:04:59.716     18 038 kbps     38 625 kbps     00:34:46.375    27 821 kbps     00:31:46.904    27 042 kbps     00:31:42.442    94 042 bytes    530 361 bytes   00:34:42.413
8               0:35:02.433     0:05:00.883     17 743 kbps     34 923 kbps     00:35:17.323    26 973 kbps     00:35:16.948    24 656 kbps     00:35:16.948    92 504 bytes    670 756 bytes   00:35:54.068
9               0:40:03.317     0:04:20.301     15 442 kbps     39 084 kbps     00:40:22.461    26 792 kbps     00:40:22.002    24 242 kbps     00:40:17.206    80 518 bytes    739 151 bytes   00:42:36.595
STREAM DIAGNOSTICS:
File            PID             Type            Codec           Language                Seconds                 Bitrate                 Bytes           Packets
----            ---             ----            -----           --------                --------------          --------------          -------------   -----
00008.M2TS      4113 (0x1011)   0x1B            AVC                                     2663,452                19 277                  6 417 893 770   34 917 310
00008.M2TS      4352 (0x1100)   0x80            LPCM            rus (Russian)           2663,452                1 542                   513 530 512     3 196 248
00008.M2TS      4353 (0x1101)   0x80            LPCM            rus (Russian)           2663,452                1 542                   513 530 512     3 196 248
00008.M2TS      4354 (0x1102)   0x80            LPCM            rus (Russian)           2663,452                1 542                   513 530 512     3 196 248
QUICK SUMMARY:
Disc Title: WHITE_TIGER_HDCLUB
Disc Size: 36 755 383 134 bytes
Protection: AACS
BD-Java: No
Playlist: 00004.MPLS
Size: 8 562 296 832 bytes
Length: 0:44:23
Total Bitrate: 25,72 Mbps
Video: MPEG-4 AVC Video / 19276 kbps / 1080p / 23,976 fps / 16:9 / High Profile 4.1
Audio: Russian / LPCM Audio / 2.0 / 48 kHz / 1536 kbps / 16-bit
Audio: Russian / LPCM Audio / 2.0 / 48 kHz / 1536 kbps / 16-bit
Audio: Russian / LPCM Audio / 2.0 / 48 kHz / 1536 kbps / 16-bit
********************
PLAYLIST: 00003.MPLS
********************
Total   Video
Title                                                           Codec   Length  Movie Size      Disc Size       Bitrate Bitrate Main Audio Track                          Secondary Audio Track
-----                                                           ------  ------- --------------  --------------  ------- ------- ------------------                        ---------------------
00003.MPLS                                                      AVC     0:17:48 2 827 782 144   36 755 383 134  21,17   18,83   DD AC3 5.1 448Kbps                        DD AC3 5.1 448Kbps
DISC INFO:
Disc Title:     WHITE_TIGER_HDCLUB
Disc Size:      36 755 383 134 bytes
Protection:     AACS
BD-Java:        No
BDInfo:         0.5.6
PLAYLIST REPORT:
Name:                   00003.MPLS
Length:                 0:17:48 (h:m:s)
Size:                   2 827 782 144 bytes
Total Bitrate:          21,17 Mbps
VIDEO:
Codec                   Bitrate             Description
-----                   -------             -----------
MPEG-4 AVC Video        18834 kbps          1080p / 23,976 fps / 16:9 / High Profile 4.1
AUDIO:
Codec                           Language        Bitrate         Description
-----                           --------        -------         -----------
Dolby Digital Audio             Russian         448 kbps        5.1 / 48 kHz / 448 kbps
Dolby Digital Audio             Russian         448 kbps        5.1 / 48 kHz / 448 kbps
Dolby Digital Audio             Russian         448 kbps        5.1 / 48 kHz / 448 kbps
FILES:
Name            Time In         Length          Size            Total Bitrate
----            -------         ------          ----            -------------
00007.M2TS      0:00:00.000     0:17:48.817     2 827 782 144   21 166
CHAPTERS:
Number          Time In         Length          Avg Video Rate  Max 1-Sec Rate  Max 1-Sec Time  Max 5-Sec Rate  Max 5-Sec Time  Max 10Sec Rate  Max 10Sec Time  Avg Frame Size  Max Frame Size  Max Frame Time
------          -------         ------          --------------  --------------  --------------  --------------  --------------  --------------  --------------  --------------  --------------  --------------
1               0:00:00.000     0:03:01.139     16 205 kbps     45 786 kbps     00:00:47.505    27 131 kbps     00:01:07.317    23 151 kbps     00:01:55.698    84 466 bytes    471 843 bytes   00:00:47.672
2               0:03:01.139     0:03:00.054     21 089 kbps     27 944 kbps     00:05:06.055    24 042 kbps     00:04:00.698    22 656 kbps     00:05:47.305    109 947 bytes   450 101 bytes   00:05:06.139
3               0:06:01.194     0:02:59.512     21 808 kbps     26 154 kbps     00:06:16.167    24 152 kbps     00:07:26.529    23 211 kbps     00:06:11.704    113 695 bytes   308 900 bytes   00:06:16.626
4               0:09:00.706     0:03:01.014     20 474 kbps     37 578 kbps     00:10:05.896    26 894 kbps     00:10:05.479    23 975 kbps     00:10:05.479    106 743 bytes   660 698 bytes   00:10:06.647
5               0:12:01.721     0:02:59.470     21 087 kbps     25 700 kbps     00:14:42.172    24 611 kbps     00:14:28.075    24 095 kbps     00:14:25.614    109 937 bytes   301 015 bytes   00:14:17.731
6               0:15:01.191     0:02:45.623     12 027 kbps     25 676 kbps     00:15:15.998    22 163 kbps     00:16:13.555    21 881 kbps     00:15:37.144    62 703 bytes    275 501 bytes   00:15:16.790
7               0:17:46.815     0:00:02.001     68 kbps         78 kbps         00:17:47.775    0 kbps          00:00:00.000    0 kbps          00:00:00.000    361 bytes       2 450 bytes     00:17:47.816
STREAM DIAGNOSTICS:
File            PID             Type            Codec           Language                Seconds                 Bitrate                 Bytes           Packets
----            ---             ----            -----           --------                --------------          --------------          -------------   -----
00007.M2TS      4113 (0x1011)   0x1B            AVC                                     1068,693                18 836                  2 516 238 324   13 690 180
00007.M2TS      4352 (0x1100)   0x81            AC3             rus (Russian)           1068,693                448                     59 852 800      334 000
00007.M2TS      4353 (0x1101)   0x81            AC3             rus (Russian)           1068,693                448                     59 852 800      334 000
00007.M2TS      4354 (0x1102)   0x81            AC3             rus (Russian)           1068,693                448                     59 852 800      334 000
QUICK SUMMARY:
Disc Title: WHITE_TIGER_HDCLUB
Disc Size: 36 755 383 134 bytes
Protection: AACS
BD-Java: No
Playlist: 00003.MPLS
Size: 2 827 782 144 bytes
Length: 0:17:48
Total Bitrate: 21,17 Mbps
Video: MPEG-4 AVC Video / 18834 kbps / 1080p / 23,976 fps / 16:9 / High Profile 4.1
Audio: Russian / Dolby Digital Audio / 5.1 / 48 kHz / 448 kbps
Audio: Russian / Dolby Digital Audio / 5.1 / 48 kHz / 448 kbps
Audio: Russian / Dolby Digital Audio / 5.1 / 48 kHz / 448 kbps
********************
PLAYLIST: 00006.MPLS
********************
Total   Video
Title                                                           Codec   Length  Movie Size      Disc Size       Bitrate Bitrate Main Audio Track                          Secondary Audio Track
-----                                                           ------  ------- --------------  --------------  ------- ------- ------------------                        ---------------------
00006.MPLS                                                      VC-1    0:07:11 1 421 967 360   36 755 383 134  26,35   23,80   DD AC3 2.0 448Kbps
DISC INFO:
Disc Title:     WHITE_TIGER_HDCLUB
Disc Size:      36 755 383 134 bytes
Protection:     AACS
BD-Java:        No
BDInfo:         0.5.6
PLAYLIST REPORT:
Name:                   00006.MPLS
Length:                 0:07:11 (h:m:s)
Size:                   1 421 967 360 bytes
Total Bitrate:          26,35 Mbps
VIDEO:
Codec                   Bitrate             Description
-----                   -------             -----------
VC-1 Video              23804 kbps          1080p / 23,976 fps / 16:9 / Advanced Profile 3
AUDIO:
Codec                           Language        Bitrate         Description
-----                           --------        -------         -----------
Dolby Digital Audio             Russian         448 kbps        2.0 / 48 kHz / 448 kbps / DN -4dB
Dolby Digital Audio             Russian         448 kbps        2.0 / 48 kHz / 448 kbps / DN -4dB
Dolby Digital Audio             Russian         448 kbps        2.0 / 48 kHz / 448 kbps / DN -4dB
FILES:
Name            Time In         Length          Size            Total Bitrate
----            -------         ------          ----            -------------
00012.M2TS      0:00:00.000     0:07:11.681     1 421 967 360   26 352
CHAPTERS:
Number          Time In         Length          Avg Video Rate  Max 1-Sec Rate  Max 1-Sec Time  Max 5-Sec Rate  Max 5-Sec Time  Max 10Sec Rate  Max 10Sec Time  Avg Frame Size  Max Frame Size  Max Frame Time
------          -------         ------          --------------  --------------  --------------  --------------  --------------  --------------  --------------  --------------  --------------  --------------
1               0:00:00.000     0:01:03.062     26 969 kbps     35 778 kbps     00:00:51.009    32 314 kbps     00:00:48.715    31 754 kbps     00:00:44.961    140 510 bytes   599 470 bytes   00:00:44.294
2               0:01:03.062     0:01:00.060     18 989 kbps     28 892 kbps     00:01:08.943    25 239 kbps     00:01:08.193    24 283 kbps     00:01:07.442    99 003 bytes    638 816 bytes   00:01:09.736
3               0:02:03.123     0:00:54.053     20 637 kbps     30 696 kbps     00:02:08.461    26 901 kbps     00:02:07.627    25 816 kbps     00:02:06.960    107 593 bytes   642 622 bytes   00:02:07.001
4               0:02:57.177     0:00:40.039     20 178 kbps     29 892 kbps     00:03:02.348    25 011 kbps     00:03:02.348    24 241 kbps     00:03:02.473    105 200 bytes   586 196 bytes   00:03:01.806
5               0:03:37.217     0:00:55.055     20 869 kbps     32 695 kbps     00:03:42.597    27 187 kbps     00:03:42.513    25 728 kbps     00:03:42.055    108 802 bytes   555 249 bytes   00:03:42.096
6               0:04:32.272     0:00:24.024     18 133 kbps     27 983 kbps     00:04:37.777    23 066 kbps     00:04:37.026    21 594 kbps     00:04:37.026    94 538 bytes    553 553 bytes   00:04:37.068
7               0:04:56.296     0:02:15.385     29 001 kbps     36 228 kbps     00:06:51.536    32 793 kbps     00:05:05.847    32 296 kbps     00:06:50.952    151 245 bytes   663 809 bytes   00:06:29.222
STREAM DIAGNOSTICS:
File            PID             Type            Codec           Language                Seconds                 Bitrate                 Bytes           Packets
----            ---             ----            -----           --------                --------------          --------------          -------------   -----
00012.M2TS      4113 (0x1011)   0xEA            VC-1                                    431,514                 23 813                  1 284 448 340   6 986 867
00012.M2TS      4352 (0x1100)   0x81            AC3             rus (Russian)           431,514                 448                     24 174 080      134 900
00012.M2TS      4353 (0x1101)   0x81            AC3             rus (Russian)           431,514                 448                     24 174 080      134 900
00012.M2TS      4354 (0x1102)   0x81            AC3             rus (Russian)           431,514                 448                     24 174 080      134 900
QUICK SUMMARY:
Disc Title: WHITE_TIGER_HDCLUB
Disc Size: 36 755 383 134 bytes
Protection: AACS
BD-Java: No
Playlist: 00006.MPLS
Size: 1 421 967 360 bytes
Length: 0:07:11
Total Bitrate: 26,35 Mbps
Video: VC-1 Video / 23804 kbps / 1080p / 23,976 fps / 16:9 / Advanced Profile 3
Audio: Russian / Dolby Digital Audio / 2.0 / 48 kHz / 448 kbps / DN -4dB
Audio: Russian / Dolby Digital Audio / 2.0 / 48 kHz / 448 kbps / DN -4dB
Audio: Russian / Dolby Digital Audio / 2.0 / 48 kHz / 448 kbps / DN -4dB
********************
PLAYLIST: 00005.MPLS
********************
Total   Video
Title                                                           Codec   Length  Movie Size      Disc Size       Bitrate Bitrate Main Audio Track                          Secondary Audio Track
-----                                                           ------  ------- --------------  --------------  ------- ------- ------------------                        ---------------------
00005.MPLS                                                      VC-1    0:03:45 469 837 824     36 755 383 134  16,66   14,51   DD AC3 2.0 448Kbps
DISC INFO:
Disc Title:     WHITE_TIGER_HDCLUB
Disc Size:      36 755 383 134 bytes
Protection:     AACS
BD-Java:        No
BDInfo:         0.5.6
PLAYLIST REPORT:
Name:                   00005.MPLS
Length:                 0:03:45 (h:m:s)
Size:                   469 837 824 bytes
Total Bitrate:          16,66 Mbps
VIDEO:
Codec                   Bitrate             Description
-----                   -------             -----------
VC-1 Video              14513 kbps          1080p / 23,976 fps / 16:9 / Advanced Profile 3
AUDIO:
Codec                           Language        Bitrate         Description
-----                           --------        -------         -----------
Dolby Digital Audio             Russian         448 kbps        2.0 / 48 kHz / 448 kbps / DN -4dB
Dolby Digital Audio             Russian         448 kbps        2.0 / 48 kHz / 448 kbps / DN -4dB
Dolby Digital Audio             Russian         448 kbps        2.0 / 48 kHz / 448 kbps / DN -4dB
FILES:
Name            Time In         Length          Size            Total Bitrate
----            -------         ------          ----            -------------
00009.M2TS      0:00:00.000     0:03:45.642     469 837 824     16 658
CHAPTERS:
Number          Time In         Length          Avg Video Rate  Max 1-Sec Rate  Max 1-Sec Time  Max 5-Sec Rate  Max 5-Sec Time  Max 10Sec Rate  Max 10Sec Time  Avg Frame Size  Max Frame Size  Max Frame Time
------          -------         ------          --------------  --------------  --------------  --------------  --------------  --------------  --------------  --------------  --------------  --------------
1               0:00:00.000     0:00:08.008     12 324 kbps     18 087 kbps     00:00:05.004    13 811 kbps     00:00:01.000    0 kbps          00:00:00.000    63 921 bytes    329 989 bytes   00:00:00.000
2               0:00:08.008     0:00:06.005     11 086 kbps     33 867 kbps     00:00:12.554    12 230 kbps     00:00:08.967    0 kbps          00:00:00.000    57 796 bytes    543 430 bytes   00:00:13.346
3               0:00:14.014     0:00:06.005     24 745 kbps     42 019 kbps     00:00:18.810    25 558 kbps     00:00:14.806    0 kbps          00:00:00.000    129 008 bytes   647 976 bytes   00:00:19.602
4               0:00:20.019     0:00:06.005     28 689 kbps     38 604 kbps     00:00:23.732    30 690 kbps     00:00:20.019    0 kbps          00:00:00.000    149 573 bytes   646 370 bytes   00:00:20.353
5               0:00:26.025     0:00:06.006     11 511 kbps     19 207 kbps     00:00:30.905    12 160 kbps     00:00:26.985    0 kbps          00:00:00.000    60 011 bytes    317 565 bytes   00:00:26.609
6               0:00:32.032     0:00:07.006     13 094 kbps     30 906 kbps     00:00:37.620    15 100 kbps     00:00:34.033    0 kbps          00:00:00.000    68 267 bytes    489 505 bytes   00:00:38.621
7               0:00:39.038     0:00:07.007     14 841 kbps     23 346 kbps     00:00:42.333    17 669 kbps     00:00:39.330    0 kbps          00:00:00.000    77 374 bytes    488 041 bytes   00:00:39.372
8               0:00:46.046     0:00:06.005     7 336 kbps      12 976 kbps     00:00:49.007    8 119 kbps      00:00:46.046    0 kbps          00:00:00.000    38 247 bytes    236 893 bytes   00:00:46.129
9               0:00:52.052     0:00:05.004     6 974 kbps      17 050 kbps     00:00:56.056    6 974 kbps      00:00:52.052    0 kbps          00:00:00.000    36 361 bytes    319 781 bytes   00:00:56.890
10              0:00:57.057     0:00:06.005     11 391 kbps     16 836 kbps     00:01:01.352    11 720 kbps     00:00:58.057    0 kbps          00:00:00.000    59 387 bytes    334 102 bytes   00:00:57.640
11              0:01:03.062     0:00:07.007     12 300 kbps     33 460 kbps     00:01:08.818    14 090 kbps     00:01:05.023    0 kbps          00:00:00.000    64 127 bytes    503 157 bytes   00:01:09.611
12              0:01:10.070     0:00:06.005     20 214 kbps     27 585 kbps     00:01:13.865    22 021 kbps     00:01:10.070    0 kbps          00:00:00.000    105 385 bytes   500 092 bytes   00:01:10.361
13              0:01:16.076     0:00:07.006     8 076 kbps      17 116 kbps     00:01:21.372    9 067 kbps      00:01:17.827    0 kbps          00:00:00.000    42 103 bytes    272 031 bytes   00:01:22.373
14              0:01:23.082     0:00:07.007     20 937 kbps     48 008 kbps     00:01:27.587    25 846 kbps     00:01:25.085    0 kbps          00:00:00.000    109 154 bytes   769 831 bytes   00:01:28.171
15              0:01:30.090     0:00:05.004     24 570 kbps     31 312 kbps     00:01:30.590    24 570 kbps     00:01:30.090    0 kbps          00:00:00.000    128 099 bytes   264 479 bytes   00:01:30.632
16              0:01:35.095     0:00:06.005     8 322 kbps      13 678 kbps     00:01:39.390    8 817 kbps      00:01:35.720    0 kbps          00:00:00.000    43 386 bytes    233 745 bytes   00:01:35.136
17              0:01:41.101     0:00:06.005     8 537 kbps      21 969 kbps     00:01:46.064    9 091 kbps      00:01:42.101    0 kbps          00:00:00.000    44 507 bytes    399 765 bytes   00:01:46.815
18              0:01:47.106     0:00:07.007     21 006 kbps     45 971 kbps     00:01:52.904    23 616 kbps     00:01:49.109    0 kbps          00:00:00.000    109 515 bytes   762 235 bytes   00:01:53.905
19              0:01:54.114     0:00:07.006     24 804 kbps     38 761 kbps     00:01:54.531    30 223 kbps     00:01:54.155    0 kbps          00:00:00.000    129 317 bytes   761 761 bytes   00:01:54.656
20              0:02:01.120     0:00:05.004     10 013 kbps     13 955 kbps     00:02:04.374    10 013 kbps     00:02:01.120    0 kbps          00:00:00.000    52 205 bytes    239 330 bytes   00:02:04.415
21              0:02:06.125     0:00:07.007     6 919 kbps      14 321 kbps     00:02:11.256    7 931 kbps      00:02:08.128    0 kbps          00:00:00.000    36 073 bytes    221 959 bytes   00:02:12.215
22              0:02:13.133     0:00:06.005     7 514 kbps      12 163 kbps     00:02:16.636    8 193 kbps      00:02:13.299    0 kbps          00:00:00.000    39 173 bytes    221 261 bytes   00:02:13.716
23              0:02:19.139     0:00:06.005     7 868 kbps      21 474 kbps     00:02:23.977    8 679 kbps      00:02:20.139    0 kbps          00:00:00.000    41 020 bytes    333 168 bytes   00:02:24.978
24              0:02:25.144     0:00:06.005     14 116 kbps     29 356 kbps     00:02:30.024    15 076 kbps     00:02:26.145    0 kbps          00:00:00.000    73 597 bytes    489 149 bytes   00:02:30.984
25              0:02:31.150     0:00:07.007     16 732 kbps     25 825 kbps     00:02:35.238    18 603 kbps     00:02:32.235    0 kbps          00:00:00.000    87 231 bytes    487 745 bytes   00:02:31.734
26              0:02:38.158     0:00:06.005     16 314 kbps     36 976 kbps     00:02:42.745    17 843 kbps     00:02:39.159    0 kbps          00:00:00.000    85 055 bytes    740 738 bytes   00:02:43.997
27              0:02:44.163     0:00:06.005     21 215 kbps     31 562 kbps     00:02:47.667    23 240 kbps     00:02:44.497    0 kbps          00:00:00.000    110 604 bytes   739 443 bytes   00:02:44.747
28              0:02:50.169     0:00:06.006     7 318 kbps      13 421 kbps     00:02:54.465    7 836 kbps      00:02:50.712    0 kbps          00:00:00.000    38 154 bytes    260 397 bytes   00:02:50.753
29              0:02:56.176     0:00:06.005     5 849 kbps      13 202 kbps     00:03:01.055    6 338 kbps      00:02:57.177    0 kbps          00:00:00.000    30 494 bytes    213 717 bytes   00:03:02.015
30              0:03:02.182     0:00:07.006     8 320 kbps      16 890 kbps     00:03:07.770    9 355 kbps      00:03:04.183    0 kbps          00:00:00.000    43 379 bytes    279 908 bytes   00:03:08.771
31              0:03:09.188     0:00:06.006     10 077 kbps     15 894 kbps     00:03:13.234    10 660 kbps     00:03:09.772    0 kbps          00:00:00.000    52 537 bytes    279 439 bytes   00:03:09.522
32              0:03:15.195     0:00:06.005     9 289 kbps      15 424 kbps     00:03:19.824    9 805 kbps      00:03:16.154    0 kbps          00:00:00.000    48 427 bytes    252 808 bytes   00:03:15.528
33              0:03:21.201     0:00:07.006     17 081 kbps     56 302 kbps     00:03:26.539    20 999 kbps     00:03:23.202    0 kbps          00:00:00.000    89 054 bytes    806 014 bytes   00:03:26.956
34              0:03:28.207     0:00:06.006     26 426 kbps     32 415 kbps     00:03:28.249    29 257 kbps     00:03:28.207    0 kbps          00:00:00.000    137 772 bytes   445 804 bytes   00:03:28.291
35              0:03:34.214     0:00:06.005     18 698 kbps     46 507 kbps     00:03:39.010    19 933 kbps     00:03:35.215    0 kbps          00:00:00.000    97 481 bytes    675 558 bytes   00:03:39.802
36              0:03:40.220     0:00:05.422     29 038 kbps     38 104 kbps     00:03:40.470    31 457 kbps     00:03:40.220    0 kbps          00:00:00.000    153 755 bytes   673 133 bytes   00:03:40.553
STREAM DIAGNOSTICS:
File            PID             Type            Codec           Language                Seconds                 Bitrate                 Bytes           Packets
----            ---             ----            -----           --------                --------------          --------------          -------------   -----
00009.M2TS      4113 (0x1011)   0xEA            VC-1                                    225,559                 14 519                  409 349 147     2 227 988
00009.M2TS      4352 (0x1100)   0x81            AC3             rus (Russian)           225,559                 448                     12 633 600      70 500
00009.M2TS      4353 (0x1101)   0x81            AC3             rus (Russian)           225,559                 448                     12 633 600      70 500
00009.M2TS      4354 (0x1102)   0x81            AC3             rus (Russian)           225,559                 448                     12 633 600      70 500
QUICK SUMMARY:
Disc Title: WHITE_TIGER_HDCLUB
Disc Size: 36 755 383 134 bytes
Protection: AACS
BD-Java: No
Playlist: 00005.MPLS
Size: 469 837 824 bytes
Length: 0:03:45
Total Bitrate: 16,66 Mbps
Video: VC-1 Video / 14513 kbps / 1080p / 23,976 fps / 16:9 / Advanced Profile 3
Audio: Russian / Dolby Digital Audio / 2.0 / 48 kHz / 448 kbps / DN -4dB
Audio: Russian / Dolby Digital Audio / 2.0 / 48 kHz / 448 kbps / DN -4dB
Audio: Russian / Dolby Digital Audio / 2.0 / 48 kHz / 448 kbps / DN -4dB
********************
PLAYLIST: 00000.MPLS
********************
Total   Video
Title                                                           Codec   Length  Movie Size      Disc Size       Bitrate Bitrate Main Audio Track                          Secondary Audio Track
-----                                                           ------  ------- --------------  --------------  ------- ------- ------------------                        ---------------------
00000.MPLS                                                      AVC     0:00:20 41 834 496      36 755 383 134  16,24   15,50
DISC INFO:
Disc Title:     WHITE_TIGER_HDCLUB
Disc Size:      36 755 383 134 bytes
Protection:     AACS
BD-Java:        No
BDInfo:         0.5.6
PLAYLIST REPORT:
Name:                   00000.MPLS
Length:                 0:00:20 (h:m:s)
Size:                   41 834 496 bytes
Total Bitrate:          16,24 Mbps
VIDEO:
Codec                   Bitrate             Description
-----                   -------             -----------
MPEG-4 AVC Video        15495 kbps          1080p / 23,976 fps / 16:9 / High Profile 4.1
FILES:
Name            Time In         Length          Size            Total Bitrate
----            -------         ------          ----            -------------
00000.M2TS      0:00:00.000     0:00:20.603     41 834 496      16 243
CHAPTERS:
Number          Time In         Length          Avg Video Rate  Max 1-Sec Rate  Max 1-Sec Time  Max 5-Sec Rate  Max 5-Sec Time  Max 10Sec Rate  Max 10Sec Time  Avg Frame Size  Max Frame Size  Max Frame Time
------          -------         ------          --------------  --------------  --------------  --------------  --------------  --------------  --------------  --------------  --------------  --------------
1               0:00:00.000     0:00:20.603     15 495 kbps     28 241 kbps     00:00:01.292    17 693 kbps     00:00:01.000    16 462 kbps     00:00:09.718    80 785 bytes    545 123 bytes   00:00:02.252
STREAM DIAGNOSTICS:
File            PID             Type            Codec           Language                Seconds                 Bitrate                 Bytes           Packets
----            ---             ----            -----           --------                --------------          --------------          -------------   -----
00000.M2TS      4113 (0x1011)   0x1B            AVC                                     20,521                  15 558                  39 907 555      217 186
QUICK SUMMARY:
Disc Title: WHITE_TIGER_HDCLUB
Disc Size: 36 755 383 134 bytes
Protection: AACS
BD-Java: No
Playlist: 00000.MPLS
Size: 41 834 496 bytes
Length: 0:00:20
Total Bitrate: 16,24 Mbps
Video: MPEG-4 AVC Video / 15495 kbps / 1080p / 23,976 fps / 16:9 / High Profile 4.1

-

Скриншоты меню

Скриншоты

Скриншоты доп. материалов


-

Знаете ли вы, что...

• Фильм снят по мотивам романа Ильи Бояшова «Танкист».

-
-
[Профиль] [ЛС]
Показать сообщения:    

Текущее время: Сегодня 14:36

Часовой пояс: GMT



Вы не можете начинать темы
Вы не можете отвечать на сообщения
Вы не можете редактировать свои сообщения
Вы не можете удалять свои сообщения
Вы не можете голосовать в опросах
Вы не можете прикреплять файлы к сообщениям
Вы не можете скачивать файлы