Белый свет - Черный дождь: Разрушение Хиросимы и Нагасаки / White Light - Black Rain: The Destruction of Hiroshima and Nagasaki (Стивен Оказаки / Steven Okazaki) [2007, документальный, катастрофы, HDTV 1080i] DVO (NOVAMEDIA)

 
Автор Сообщение

TorrentFilm ®

Пол:

Стаж: 2 года

Сообщений: 7741



Награды: Нет

Торрент-статистика

Создавать темы 30-Дек-2014 00:00

[Цитировать]

Белый свет/Черный дождь: Разрушение Хиросимы и Нагасаки
White Light/Black Rain: The Destruction of Hiroshima and Nagasaki- Год выпуска: 2007
Страна: США
Студия: HBO
Жанр: документальный, катастрофы
Продолжительность: 01:22:14
Перевод: Профессиональный (двухголосый закадровый)
Доп. инфо о переводе: Студия NOVAMEDIA по заказу компании Amedia TV, перевод Максима Понягина, текст читали Кирил Туранский, Екатерина Семенова
Русские субтитры: нет
Режиссер: Стивен Оказаки / Steven Okazaki
Описание: Документальный фильм НВО о величайшей трагедии в истории Японии. Взрыв атомной бомбы в Хиросиме и Нагасаки. Уникальные интервью очевидцев, чья жизнь навсегда изменилась в августе 1945 года.
Доп. информация: Amedia Premium HD. Во время интервью на японском языке на экране вшитые английские субтитры.
Награды: прайм-тайм премия "Эмми" 2008; номинация на Гран-при жюри за лучший документальный фильм Sundance Film Festival 2007; номинация на лучшего продюсера документального фильма PGA Awards 2008.

Тип релиза: HDTV 1080i
Контейнер: TS
Видео: AVC (H.264), 1920x1080 (16:9), 25 fps, ~6500 kbps avg
Аудио 1: MPEG Audio 2, 2 ch, 48 kHz, ~192.00 kbps avg - русский
Аудио 2: MPEG Audio 2, 2 ch, 48 kHz, ~192.00 kbps avg - английский

MediaInfo

ОбщееИдентификатор : 23781 (0x5CE5)Полное имя : E:\My Torrents 2\[apreder]White_Light_Black_Rain(2007)HDTV.TSФормат : MPEG-TSРазмер файла : 4,27 ГбайтПродолжительность : 1 ч. 22 м.Режим общего битрейта : ПеременныйОбщий поток : 7428 Кбит/сек
ВидеоИдентификатор : 70 (0x46)Идентификатор меню : 1 (0x1)Формат : AVCФормат/Информация : Advanced Video CodecПрофиль формата : High@L4.0Параметр CABAC формата : ДаПараметр ReFrames формата : 4 кадраИдентификатор кодека : 27Продолжительность : 1 ч. 22 м.Битрейт : 6673 Кбит/секШирина : 1920 пикселейВысота : 1080 пикселейСоотношение сторон : 16:9Частота кадров : 25,000 кадров/секСтандарт вещания : ComponentЦветовое пространство : YUVСубдискретизация насыщенности : 4:2:0Битовая глубина : 8 битТип развёртки : MBAFFПорядок развёртки : Верхнее поле первоеБит/(Пиксели*Кадры) : 0.129Размер потока : 3,83 Гбайт (90%)Основные цвета : BT.709Характеристики трансфера : BT.709Коэффициенты матрицы : BT.709colour_range : Limited
Аудио #1Идентификатор : 68 (0x44)Идентификатор меню : 1 (0x1)Формат : MPEG AudioВерсия формата : Version 1Профиль формата : Layer 2Идентификатор кодека : 3Продолжительность : 1 ч. 22 м.Вид битрейта : ПостоянныйБитрейт : 192 Кбит/секКаналы : 2 каналаЧастота : 48,0 КГцМетод сжатия : С потерямиЗадержка видео : -9 мс.Размер потока : 113 Мбайт (3%)Язык : English
Аудио #2Идентификатор : 69 (0x45)Идентификатор меню : 1 (0x1)Формат : MPEG AudioВерсия формата : Version 1Профиль формата : Layer 2Идентификатор кодека : 3Продолжительность : 1 ч. 22 м.Вид битрейта : ПостоянныйБитрейт : 192 Кбит/секКаналы : 2 каналаЧастота : 48,0 КГцМетод сжатия : С потерямиЗадержка видео : -9 мс.Размер потока : 113 Мбайт (3%)Язык : Russian

Скриншоты

Резервные скриншоты

-[1'997]
[Профиль] [ЛС]
Показать сообщения:    

Текущее время: Сегодня 18:35

Часовой пояс: GMT



Вы не можете начинать темы
Вы не можете отвечать на сообщения
Вы не можете редактировать свои сообщения
Вы не можете удалять свои сообщения
Вы не можете голосовать в опросах
Вы не можете прикреплять файлы к сообщениям
Вы не можете скачивать файлы