Белый мавр, или Интимные истории о моих соседях (Дмитрий Фикс) [2012, Россия, драма, комедия, DVD5] R5 Original Rus

 
Author Message

TorrentFilm ®

Gender:

Longevity: 4 years 5 months

Posts: 7763



: None

Торрент-статистика

Post 02-Jan-2016 00:02

[Quote]

-Белый мавр, или Интимные истории о моих соседях-«Им есть что скрывать» -Страна: Россия
Студия: Мотор Фильм Студия
Жанр: драма, комедия
Год выпуска: 2012
Российская премьера: 20 сентября 2012, «Мотор Интертейнтмент»
Дата выхода DVD: 17 января 2013, «Монолит»
Продолжительность: 01:39:19
Перевод: Оригинал [Лицензия]
Cубтитры: нет
Оригинальная аудиодорожка: русский-Режиссер: Дмитрий Фикс-В ролях: Вячеслав Разбегаев, Галина Петрова, Андрей Соколов, Сергей Астахов, Александр Галибин, Екатерина Стриженова, Эвклид Кюрдзидис, Жанна Эппле, Игорь Верник, Олеся Железняк, Анна Якунина, Евгения Морозова, Полина Райкина-Описание: Это ироничная, местами откровенно смешная и в тоже время грустная история о буднях так называемого «верхнего среднего класса» — воспетой в Америке Вуди Алленом, но пока еще весьма малочисленной в нашей стране прослойке состоятельных граждан. Помимо завидного достатка, всех этих погрязших в экзистенциальных сомнениях и банальных адюльтерах бизнесменов, кинозвезд, модных режиссеров, хозяев стоматологических клиник и их прекрасных жен объединяет еще и звонкое пионерское прошлое, преодолеть которое подчас оказывается гораздо сложнее, чем отгрохать особняк на Новой Риге…-Бонусы: Смотрите на DVD- -Релиз группы: -Качество: DVD5 R5
Формат: DVD-Video
Видео кодек: MPEG2
Аудио кодек: AC3
Видео: PAL 16:9 (720x576(0.464)) MPEG Video, 25,000 кадр/сек, 4808 Кбит/сек
Аудио: Russian (Dolby AC3, 6 ch) 384 Кбит/сек, 48,0 КГц--

DVDInfo

Title: Belyj.mavr.ili.Intimnye.istorii.o.moih.sosedjah.2012.DVD5
Size: 4.14 Gb ( 4 344 486,00 KBytes ) - DVD-5
Enabled regions: 1, 2, 3, 4, 5, 6, 7, 8
VTS_01 :
Play Length: 01:39:19
Video: PAL 16:9 (720x576) VBR, Auto Pan&Scan, Auto Letterboxed
Audio:
Russian (Dolby AC3, 6 ch)
VTS_02 :
Play Length: 00:00:14+00:00:09+00:01:59+00:01:54+00:02:11+00:01:48+00:00:12
Video: PAL 16:9 (720x576) VBR, Auto Pan&Scan, Auto Letterboxed
Audio:
Russian (Dolby AC3, 6 ch)
* Menus Information *
VIDEO_TS Menu
Video:
PAL 16:9 (720x576) VBR
Auto Letterboxed
Audio:
Not specified (Dolby AC3, 2 ch)
English Language Unit :
Title Menu
VTS_01 Menu
Video:
PAL 16:9 (720x576) VBR
Auto Letterboxed
Audio:
Not specified (Dolby AC3, 2 ch)
English Language Unit :
Root Menu
VTS_02 Menu
Video:
NTSC 4:3 (720x480) VBR
Auto Pan&Scan, Auto Letterboxed
English Language Unit :
Root Menu

MediaInfo

Общее
Полное имя : J:\Новинки 2012\Belyj.mavr.ili.Intimnye.istorii.o.moih.sosedjah.2012.DVD5\VIDEO_TS\VTS_01_2.VOB
Формат : MPEG-PS
Размер файла : 1024 Мбайт
Продолжительность : 27 м.
Режим общего битрейта : Переменный
Общий поток : 5297 Кбит/сек
Видео
Идентификатор : 224 (0xE0)
Формат : MPEG Video
Версия формата : Version 2
Профиль формата : Main@Main
Параметр BVOP формата : Да
Параметр матрицы формата : По умолчанию
Параметр GOP формата : M=3, N=12
Продолжительность : 27 м.
Вид битрейта : Переменный
Битрейт : 4808 Кбит/сек
Максимальный битрейт : 5500 Кбит/сек
Ширина : 720 пикселей
Высота : 576 пикселей
Соотношение сторон : 16:9
Частота кадров : 25,000 кадров/сек
Стандарт вещания : PAL
Цветовое пространство : YUV
Субдискретизация насыщенности : 4:2:0
Битовая глубина : 8 бит
Тип развёртки : Чересстрочная
Порядок развёртки : Верхнее поле первое
Метод сжатия : С потерями
Бит/(Пиксели*Кадры) : 0.464
Размер потока : 929 Мбайт (91%)
Аудио
Идентификатор : 189 (0xBD)-128 (0x80)
Формат : AC-3
Формат/Информация : Audio Coding 3
Расширение режима : CM (complete main)
Параметр Endianness формата : Big
Режим смешивания : DVD-Video
Продолжительность : 27 м.
Вид битрейта : Постоянный
Битрейт : 384 Кбит/сек
Каналы : 6 каналов
Расположение каналов : Front: L C R, Side: L R, LFE
Частота : 48,0 КГц
Битовая глубина : 16 бит
Метод сжатия : С потерями
Задержка видео : -736 мс.
Размер потока : 74,2 Мбайт (7%)

Скриншоты меню

Скриншоты фильма


-
-Раздача от группы:
[Profile] [PM]
Display posts from previous:    

The time now is: Today 04:45

All times are GMT



You cannot post new topics in this forum
You cannot reply to topics in this forum
You cannot edit your posts in this forum
You cannot delete your posts in this forum
You cannot vote in polls in this forum
You cannot attach files in this forum
You cannot download files in this forum