Белый лебедь / Assassins Run (2013) HDRip

 
Автор Сообщение

sergej644 ®

Пол:

Стаж: 4 года 11 месяцев

Сообщений: 6043

Откуда: Soviet Union



Награды: Нет

Торрент-статистика

Создавать темы 10-Окт-2014 21:04

[Цитировать]

-Белый лебедь / Assassins Run (2013) HDRip-Год выпуска: 2013
Производство: США, Россия, Whale Studio
Жанр: Боевик, триллер, криминал
Режиссер: Роберт Кромби
Актеры: Кристиан Слэйтер, Софья Ская, Коул Хаузер, Энгус Макфадьен, Марианна Халифман, Светлана Цвиченко, Александр Рапопорт
Описание фильма:
История прима-балерины, ее американского мужа и их маленькой дочери Нины. «Человек без лица», маньяк-психопат Роман, старается разрушить счастливую жизнь семьи. Герой Слейтера погибает при таинственных обстоятельствах. Майю, красивую русскую балерину, начинает преследовать мафия. Коррумпированные полицейские сажают девушку в тюрьму, а когда приходит время освобождения, ей предстоит вступить в борьбу за жизнь похищенной дочери.
Перевод: Любительский многоголосый
Субтитры: Отсутствуют

Продолжительность: 01:28:09
Качество видео: HDRip
Видеокодек: XviD
Битрейт видео: ~2018 Кбит/с
Размер кадра: 720x400
Аудиокодек: AC3 2 ch
Битрейт аудио: 192 Кбит/с

MediaInfo:

Общее
Полное имя : C:\NNM\Белый лебедь\Belyj lebedj 2013 HDRip.avi
Формат : AVI
Формат/Информация : Audio Video Interleave
Размер файла : 1,37 Гбайт
Продолжительность : 1 ч. 28 м.
Общий поток : 2219 Кбит/сек
Программа кодирования : VirtualDubMod 1.5.10.2 (build 2540/release)
Библиотека кодирования : VirtualDubMod build 2540/release
Видео
Идентификатор : 0
Формат : MPEG-4 Visual
Профиль формата : Advanced Simple@L5
Параметр BVOP формата : 2
Параметр QPel формата : Нет
Параметр GMC формата : Без точки перехода
Параметр матрицы формата : Default (MPEG)
Идентификатор кодека : XVID
Идентификатор кодека/Подсказка : XviD
Продолжительность : 1 ч. 28 м.
Битрейт : 2018 Кбит/сек
Ширина : 720 пикселей
Высота : 400 пикселей
Соотношение сторон : 16:9
Частота кадров : 23,976 кадра/сек
Цветовое пространство : YUV
Субдискретизация насыщенности : 4:2:0
Битовая глубина : 8 бит
Тип развёртки : Прогрессивная
Метод сжатия : С потерями
Бит/(Пиксели*Кадры) : 0.292
Размер потока : 1,24 Гбайт (91%)
Библиотека кодирования : XviD 1.2.1 (UTC 2008-12-04)
Аудио
Идентификатор : 1
Формат : AC-3
Формат/Информация : Audio Coding 3
Расширение режима : CM (complete main)
Идентификатор кодека : 2000
Продолжительность : 1 ч. 28 м.
Вид битрейта : Постоянный
Битрейт : 192 Кбит/сек
Каналы : 2 канала
Расположение каналов : Front: L R
Частота : 48,0 КГц
Битовая глубина : 16 бит
Метод сжатия : С потерями
Размер потока : 121 Мбайт (9%)
Выравнивание : Разделение по промежуткам
Продолжительность промежутка : 42 мс. (1,00 видеокадр)
Время предзагрузки промежутка : 500 мс.
Скриншоты:
Время раздачи:Круглосуточно до 10 скачавших
[Профиль] [ЛС]
Показать сообщения:    

Текущее время: Сегодня 02:26

Часовой пояс: GMT



Вы не можете начинать темы
Вы не можете отвечать на сообщения
Вы не можете редактировать свои сообщения
Вы не можете удалять свои сообщения
Вы не можете голосовать в опросах
Вы не можете прикреплять файлы к сообщениям
Вы не можете скачивать файлы