Белый ангел / Beyaz melek (Махсун Кырмызыгюль / Mahsun Kirmizigul) [2007, Турция, Драма, HDTVRip] Sub Rus

 
Автор Сообщение

painkiller ®

Стаж: 2 года 3 месяца

Сообщений: 582



Награды: Нет

Торрент-статистика

Создавать темы 14-Авг-2014 09:11

[Цитировать]

Белый ангел / Beyaz melek
Страна: Турция, Boyut Film
Жанр: Драма
Год выпуска: 2007
Продолжительность: 01:57:17
Перевод: Субтитры
Cубтитры: русские
Оригинальная аудиодорожка: Турецкий
Режиссер: Махсун Кырмызыгюль /Mahsun Kirmizigul
В ролях: Джансу Актай, Сарп Апак, Фадик Севин Атасой, Джезми Баскин, Лале Белькис, Явуз Бинголь, Хюсейн Авни Даньял, Нурсим Демир, Эрол Демирёз, Ариф Эркин, Махсун Кырмызыгюль , Бильге Зобу, Йылдыз Кентер, Пинар Эртюре, Эрол Гюнайдын, Салих Кальон, Торон Караджаолу, Ознур Кула, Томрыш Ёгюзалп, Газанфер Озджан, Илькай Саран, Эмель Сайын, Суна Селен, Али Сюрмели, Джихат Тамер, Лале Танджи, Фырат Таныш, Зейнеп Токуш, Танджу Тунчель, Неджми Йапыджи, Неджат Уйгур
Описание: Али и Решат привозят своего отца Ахмета, больного раком мозга, в Стамбул для прохождения курса химиотерапии. Ахмет, не желая больше выносить тяжелого курса лечения, сбегает из больницы и от своих детей и оказывается в доме престарелых. Жители дома престарелых, полагая, что Ахмет брошен своими детьми, настаивают на том, чтобы он остался. Ахмет, которому трудно разговаривать, соглашается с ситуацией. Али и Решат находят отца в доме престарелых, но видя, что он кажется счастливым, не противятся тому, чтобы он остался. То, что их отец проживет свои последние дни в спокойствии и счастье, гораздо важнее, чем лечение, которое может оказаться бесполезным, но причинит ему много боли. У каждого жителя дома престарелых есть своя история и своя личная драма. По мере того, как Ахмет узнает жизненные истории каждого из них, все они становятся ему еще ближе и дороже.
Доп. информация: Релиз киноклуба "ФЕНИКС". Автор РИПА, редактирование субтитров - shachter58. Автор субтитров и перевод с турецкого - Birsorumvar

Сэмпл: http://multi-up.com/984572
Качество видео: HDTVRip
Формат видео: AVI
Видео: MPEG-4 Visual, XviD, 1616 Кбит/с, 25.000 fps, 720x304 (1:2.35), Bits/(Pixel*Frame)-0.295
Аудио: MPEG Audio, МР3, 2 channels, 44.1 KHz, 192 Kbps - Турецкий
Формат субтитров: hardsub (неотключаемые)
Доп. информация о субтитрах: вшитые

MediaInfo

F:\КИНО ТУРЦИИ\ГОТОВЫЕ РАЗДАЧИ ФИЛЬМОВ\Beliy.angel.2007.rus.SUB.HDTVRip.avi
General
Complete name : F:\КИНО ТУРЦИИ\ГОТОВЫЕ РАЗДАЧИ ФИЛЬМОВ\Beliy.angel.2007.rus.SUB.HDTVRip.avi
Format : AVI
Format/Info : Audio Video Interleave
File size : 1.49 GiB
Duration : 1h 57mn
Overall bit rate : 1 818 Kbps
Video #0
ID : 0
Format : MPEG-4 Visual
Format profile : Advanced Simple@L5
Format settings, BVOP : 2
Format settings, QPel : No
Format settings, GMC : No warppoints
Format settings, Matrix : Default (H.263)
Codec ID : XVID
Codec ID/Hint : XviD
Duration : 1h 57mn
Bit rate : 1 616 Kbps
Width : 720 pixels
Height : 304 pixels
Display aspect ratio : 2.35:1
Frame rate : 25.000 fps
Color space : YUV
Chroma subsampling : 4:2:0
Bit depth : 8 bits
Scan type : Progressive
Compression mode : Lossy
Bits/(Pixel*Frame) : 0.295
Stream size : 1.32 GiB (89%)
Writing library : XviD 64
Audio #1
ID : 1
Format : MPEG Audio
Format version : Version 1
Format profile : Layer 3
Mode : Joint stereo
Codec ID : 55
Codec ID/Hint : MP3
Duration : 1h 57mn
Bit rate mode : Constant
Bit rate : 192 Kbps
Channel(s) : 2 channels
Sampling rate : 44.1 KHz
Compression mode : Lossy
Stream size : 161 MiB (11%)
Alignment : Split accross interleaves
Interleave, duration : 40 ms (1.00 video frame)
Interleave, preload duration : 500 ms
Writing library : LAME3.99.5

Скриншот c названием фильма

Скриншоты



[Профиль] [ЛС]

Создавать темы 06-Авг-2015 23:17 (спустя 11 месяцев 23 дня)

Топик был перенесен из форума Фильмы до 2014 года в форум Фильмы до 2012 года
sergej644
 
Показать сообщения:    

Текущее время: Сегодня 00:39

Часовой пояс: GMT



Вы не можете начинать темы
Вы не можете отвечать на сообщения
Вы не можете редактировать свои сообщения
Вы не можете удалять свои сообщения
Вы не можете голосовать в опросах
Вы не можете прикреплять файлы к сообщениям
Вы не можете скачивать файлы