Белые росы (Игорь Добролюбов) [1983, СССР, Психологическая драма, лирическая комедия, DVD5] [Магнат]

 
Автор Сообщение

sergej644 ®

Пол:

Стаж: 4 года 11 месяцев

Сообщений: 6046

Откуда: Soviet Union



Награды: Нет

Торрент-статистика

Создавать темы 21-Май-2015 09:56

[Цитировать]

--Белые росы
Страна: СССР
Студия: Беларусьфильм
Жанр: Психологическая драма, лирическая комедия.
Год выпуска: 1983
Продолжительность: 01:23:41
Режиссер: Игорь Добролюбов
В ролях: Всеволод Санаев, Николай Караченцов, Михаил Кокшенов,
Геннадий Гарбук, Борис Новиков, Галина Польских, Наталья Хорохорина,
Станислав Садальский, Стефания Станюта, Александр Беспалый и др.
Описание: Очередная деревня - "Белые росы" признана бесперспективной.
Деревню под снос, жителей в бетонные джунгли. Фёдор Ходас, вдовец,
уважаемый человек в деревне, встал перед вопросом - куда девать корову?
Может она теперь будет жить на балконе, или может лучше её продать?
Ещё и сыновья совсем от рук отбились. Старший чрезмерно расчётлив,
средний укатил далеко-далеко, младший чересчур весел.
Мало того - один из них ещё и не женатый...
Меню: Частично анимированное, озвученное.
Издатель диска: Магнат. Без реставрации.
Тип релиза: DVD5
Контейнер: DVD-Video
Видео кодек: MPEG-2
Аудио кодек: AC-3
Видео: PAL 4:3 (720x576) VBR, 6094 kbps - 9200 kbps
Аудио: Russian (Dolby AC3, 2 ch) CBR 384 kbps, Front: L R, 48.0 KHz 16 bits

DVDInfo

Title: Belie_rosi_1983_DVD5_[torrentfilm.net]Size: 3.92 Gb ( 4 111 032,00 KBytes ) - DVD-5Enabled regions: 1, 2, 3, 4, 5, 6, 7, 8
VTS_01 : Play Length: 01:23:41 Video: PAL 4:3 (720x576) VBR Audio: Not specified (Dolby AC3, 2 ch)
VTS_02 : Play Length: 00:00:27 Video: PAL 4:3 (720x576) VBR Audio: Not specified (Dolby AC3, 2 ch)
* Menus Information *
VIDEO_TS MenuVideo: PAL 4:3 (720x576) VBRAudio: Not specified (Dolby AC3, 2 ch)Language Unit : Title Menu
VTS_01 MenuVideo: PAL 4:3 (720x576) VBRAudio: Not specified (Dolby AC3, 2 ch)Language Unit : Root Menu
VTS_02 MenuVideo: PAL 4:3 (720x576) VBR Auto Pan&Scan, Auto LetterboxedLanguage Unit : Subpicture Menu Angle menuLanguage Unit : Subpicture Menu Angle menuLanguage Unit : Subpicture Menu Angle menuLanguage Unit : Subpicture Menu Angle menuLanguage Unit : Subpicture Menu Angle menu

MediaInfo - VTS_01_1.VOB

ОбщееПолное имя : E:\Belie_rosi_1983_DVD5_[torrentfilm.net]\VIDEO_TS\VTS_01_1.VOBФормат : MPEG-PSРазмер файла : 1024 МбайтПродолжительность : 21 м.Режим общего битрейта : ПеременныйОбщий поток : 6610 Кбит/секБиблиотека кодирования : encoded by TMPGEnc DVD Author 2.0 Version. 2.1.7.88
ВидеоИдентификатор : 224 (0xE0)Формат : MPEG VideoВерсия формата : Version 2Профиль формата : Main@MainПараметр BVOP формата : ДаПараметр матрицы формата : ВыборочнаяПараметр GOP формата : VariableПродолжительность : 21 м.Вид битрейта : ПеременныйБитрейт : 6094 Кбит/секМаксимальный битрейт : 9200 Кбит/секШирина : 720 пикселейВысота : 576 пикселейСоотношение сторон : 4:3Частота кадров : 25,000 кадров/секСтандарт вещания : PALЦветовое пространство : YUVСубдискретизация насыщенности : 4:2:0Битовая глубина : 8 битТип развёртки : ЧересстрочнаяПорядок развёртки : Верхнее поле первоеМетод сжатия : С потерямиБит/(Пиксели*Кадры) : 0.588Временной код первого кадра : 00:00:00:00Оригинал временного кода : Group of pictures headerРазмер потока : 944 Мбайт (92%)Библиотека кодирования : TMPGEnc DVD Author 2.0 Version. 2.1.7.88Коэффициенты матрицы : BT.601
АудиоИдентификатор : 189 (0xBD)-128 (0x80)Формат : AC-3Формат/Информация : Audio Coding 3Расширение режима : CM (complete main)Параметр Endianness формата : BigРежим смешивания : DVD-VideoПродолжительность : 21 м.Вид битрейта : ПостоянныйБитрейт : 384 Кбит/секКаналы : 2 каналаРасположение каналов : Front: L RЧастота : 48,0 КГцБитовая глубина : 16 битМетод сжатия : С потерямиРазмер потока : 59,5 Мбайт (6%)
Меню

Скриншоты меню

Скриншоты


Дополнительная информация

[Профиль] [ЛС]

Создавать темы 06-Авг-2015 22:00 (спустя 2 месяца 16 дней)

Топик был перенесен из форума Кино СССР в форум Кино СССР
sergej644
 
Показать сообщения:    

Текущее время: Сегодня 20:45

Часовой пояс: GMT



Вы не можете начинать темы
Вы не можете отвечать на сообщения
Вы не можете редактировать свои сообщения
Вы не можете удалять свои сообщения
Вы не можете голосовать в опросах
Вы не можете прикреплять файлы к сообщениям
Вы не можете скачивать файлы