Белые ладони / Feher tenyer / White Palms (Саболч Хайду / Szabolcs Hajdu) [2006, Венгрия, Драма, спорт, DVDRip] VO

 
Автор Сообщение

TorrentFilm ®

Пол:

Стаж: 2 года

Сообщений: 7741



Награды: Нет

Торрент-статистика

Создавать темы 14-Фев-2015 00:01

[Цитировать]

Белые ладони / Feher tenyer / White Palms- Страна: Венгрия
Жанр: Драма, спорт
Год выпуска: 2006
Продолжительность: 01:41:24-Перевод: Одноголосый закадровый [Василий Кошкин]
Cубтитры: нет-Режиссер: Саболч Хайду / Szabolcs Hajdu-В ролях: Золтан Миклош Хайду, Кайл Шьюфелт, Георге Диникэ, Андор Лукач, Оана Пелля, Давид Хорват, Давид Вечерньеш, Питер Дери-Описание: Фильм о профессиональном гимнасте, который был вынужден бросить карьеру и стать тренером, о его детстве и о его неординарных отношениях с одним из его учеников.-Sample | IMDB | КиноПоиск-Тип релиза: DVDRip [исх. DVD9]
Формат видео: AVI-Видео: 704x384 (1.83:1), 25 fps, XviD build 50, 1864 kbps avg, 0.28 bit/pixel
Аудио: 48 kHz, AC3 Dolby Digital, 2/0 (L,R) ch, 192.00 kbps avg [Russian_VO]-Релиз группы: -

MediaInfo

General
Complete name : D:\Мои релизы\Feher tenyer_RG_All_Films.avi
Format : AVI
Format/Info : Audio Video Interleave
File size : 1.46 GiB
Duration : 1h 41mn
Overall bit rate : 2 066 Kbps
Writing application : VirtualDubMod 1.5.10.3 | www.virtualdub-fr.org || (build 2550/release)
Writing library : VirtualDubMod build 2550/release
Video
ID : 0
Format : MPEG-4 Visual
Format profile : Advanced Simple@L5
Format settings, BVOP : Yes
Format settings, QPel : No
Format settings, GMC : No warppoints
Format settings, Matrix : Custom
Codec ID : XVID
Codec ID/Hint : XviD
Duration : 1h 41mn
Bit rate : 1 865 Kbps
Width : 704 pixels
Height : 384 pixels
Display aspect ratio : 16:9
Frame rate : 25.000 fps
Color space : YUV
Chroma subsampling : 4:2:0
Bit depth : 8 bits
Scan type : Progressive
Compression mode : Lossy
Bits/(Pixel*Frame) : 0.276
Stream size : 1.32 GiB (90%)
Writing library : XviD 1.2.1 (UTC 2008-12-04)
Audio
ID : 1
Format : AC-3
Format/Info : Audio Coding 3
Mode extension : CM (complete main)
Codec ID : 2000
Duration : 1h 41mn
Bit rate mode : Constant
Bit rate : 192 Kbps
Channel(s) : 2 channels
Channel positions : Front: L R
Sampling rate : 48.0 KHz
Bit depth : 16 bits
Compression mode : Lossy
Stream size : 139 MiB (9%)
Alignment : Split accross interleaves
Interleave, duration : 40 ms (1.00 video frame)
Interleave, preload duration : 500 ms

Скриншоты

[Профиль] [ЛС]

Создавать темы 06-Авг-2015 22:44 (спустя 5 месяцев 20 дней)

Топик был перенесен из форума Фильмы до 2014 года в форум Фильмы до 2012 года
sergej644
 
Показать сообщения:    

Текущее время: Сегодня 08:16

Часовой пояс: GMT



Вы не можете начинать темы
Вы не можете отвечать на сообщения
Вы не можете редактировать свои сообщения
Вы не можете удалять свои сообщения
Вы не можете голосовать в опросах
Вы не можете прикреплять файлы к сообщениям
Вы не можете скачивать файлы