Белые волки 2 (2014) SATRip (серии 1-12 из 12)

 
Автор Сообщение

sergej644 ®

Пол:

Стаж: 4 года 11 месяцев

Сообщений: 6042

Откуда: Soviet Union



Награды: Нет

Торрент-статистика

Создавать темы 17-Ноя-2014 21:04

[Цитировать]

-Белые волки 2 (2014) SATRip [серии 1-12 из 12]- Год выпуска: 2014
Жанр: Боевик
Режиссер: Александр Бурцев, Дмитрий Сошников
Актеры: Андрей Аверьянов, Татьяна Калих, Денис Бобышев, Артем Бородич, Максим Житник, Александр Ильин (IV), Станислав Боклан, Олег Примогенов, Михаил Жонин, Георгий Пицхелаури, Александр Баширов, Михаил Есьман, Мария Жиганова, Анатолий Зиновенко

Дата российской премьеры: 15 ноября 2014
Описание фильма:
После ареста Ли в городе появляется таинственный «Хозяин». Он начинает постепенно прибирать к рукам весь бизнес, оставшийся после севшего в тюрьму криминального лидера. Бывший компаньон Ли – Очагиров, во время встречи в Москве раскрывает новому «Хозяину» всю схему криминального бизнеса в городе. По возвращении в город Очагирова убивают. В городе, после ареста Ли, меняется все руководство ГУВД. Новый генерал привозит с собой двух заместителей, полковников Сечного и Махнова. Буров рад приезду Сечного, потому что когда-то служил под его началом в Чечне. Доверенным лицом «Хозяина» в городе становится адвокат Белецкий, ранее проживающий в этом городе, но долгое время работавший в Москве. Задача «Хозяина» руками Белецкого и его бойцов захватить власть в городе и провернуть многомиллионную сделку по покупке завода, который принадлежит мужу бывшей любовницы Бурова – Жанне. Волки понимают, что столкнулись с очень серьезным и опасным врагом. Если про Ли все знали, кто он такой, то новый заправила преступного бизнеса никому не известен. Все знают, что он есть, но в лицо его никто не видел.
Продолжительность: ~ 00:50:00
Качество видео: SATRip
Видеокодек: Xvid
Битрейт видео: ~1800 kb/s
Размер кадра: 720x400 (16:9)
Аудиокодек: MP3
Битрейт аудио: 2 ch, 128 kb/s

Медиаинфо

Общее
Полное имя : E:\Фильмы\Белые.волки_2.2014.SATRip\Белые.волки_01.avi
Формат : AVI
Формат/Информация : Audio Video Interleave
Размер файла : 662 Мбайт
Продолжительность : 47 м.
Общий поток : 1938 Кбит/сек
Программа кодирования : VirtualDubMod 1.5.10.3 | www.virtualdub-fr.org || (build 2550/release)
Библиотека кодирования : VirtualDubMod build 2550/release
Видео
Идентификатор : 0
Формат : MPEG-4 Visual
Профиль формата : Advanced Simple@L5
Параметр BVOP формата : 2
Параметр QPel формата : Нет
Параметр GMC формата : Без точки перехода
Параметр матрицы формата : Default (H.263)
Идентификатор кодека : XVID
Идентификатор кодека/Подсказка : XviD
Продолжительность : 47 м.
Битрейт : 1800 Кбит/сек
Ширина : 720 пикселей
Высота : 400 пикселей
Соотношение сторон : 16:9
Частота кадров : 25,000 кадров/сек
Цветовое пространство : YUV
Субдискретизация насыщенности : 4:2:0
Битовая глубина : 8 бит
Тип развёртки : Прогрессивная
Метод сжатия : С потерями
Бит/(Пиксели*Кадры) : 0.250
Размер потока : 615 Мбайт (93%)
Библиотека кодирования : XviD 1.2.1 (UTC 2008-12-04)
Аудио
Идентификатор : 1
Формат : MPEG Audio
Версия формата : Version 1
Профиль формата : Layer 3
Режим : Joint stereo
Расширение режима : MS Stereo
Идентификатор кодека : 55
Идентификатор кодека/Подсказка : MP3
Продолжительность : 47 м.
Вид битрейта : Постоянный
Битрейт : 128 Кбит/сек
Каналы : 2 канала
Частота : 48,0 КГц
Метод сжатия : С потерями
Размер потока : 43,7 Мбайт (7%)
Выравнивание : Соединение по промежуткам
Продолжительность промежутка : 40 мс. (1,00 видеокадр)
Время предзагрузки промежутка : 504 мс.
Библиотека кодирования : LAME3.99r
Настройки программы : -m j -V 4 -q 9 -lowpass 17 -b 128
Скриншоты:
[Профиль] [ЛС]
Показать сообщения:    

Текущее время: Сегодня 08:57

Часовой пояс: GMT



Вы не можете начинать темы
Вы не можете отвечать на сообщения
Вы не можете редактировать свои сообщения
Вы не можете удалять свои сообщения
Вы не можете голосовать в опросах
Вы не можете прикреплять файлы к сообщениям
Вы не можете скачивать файлы