Белоснежка / Schneewittchen (Томас Френднер / Thomas Freundner) [2009, Германия, детский, семейный, фэнтези, DVB-AVC] MVO (ТВЦ)

 
Автор Сообщение

TorrentFilm ®

Пол:

Стаж: 2 года

Сообщений: 7741



Награды: Нет

Торрент-статистика

Создавать темы 15-Фев-2016 00:08

[Цитировать]

Белоснежка / Schneewittchen
Год выпуска: 2009
Страна: Германия, Saxonia Media Filmproduktion GmbH, Moviepool, Bayerischer Rundfunk
Жанр: детский, семейный, фэнтези
Продолжительность: 00:59:03
Перевод: профессиональный (многоголосый закадровый) компания "Игмар"
Субтитры: русские (Teletext)
Режиссёр: Томас Френднер / Thomas Freundner
В ролях: Лаура Берлине, Соня Кирхбергер, Николай Квасьневский, Мартин Брамбах, Петр Луппа, Уве Майер, Майкл Маркфор
Описание: кто на свете всех милее, всех румяней и белее? Конечно, это красавица Белоснежка! Узнав, что юная принцесса превзошла ее по красоте, злая мачеха приказала слуге избавиться от падчерицы. Пощадив девушку, тот отвел ее в лес, где бедняжке суждено было погибнуть от голода и диких животных. Но красавица находит в лесу дом, в котором обитают семеро приветливых гномов. Новые друзья приглашают Белоснежку жить с ними и просят стать их сестрой. Но злая мачеха снова гневается — волшебное зеркало говорит ей, что Белоснежка по-прежнему жива и по-прежнему нет никого краше ее на всем свете…
Доп. информация: по мотивам сказки братьев Гримм

Трансляция спутникового канала: ТВЦ
Семпл: https://yadi.sk/i/slTOjwfYom2CC
Качество видео: DVB
Формат видео: MPEG-TS
Видео: MPEG4 Video (H264), 720x576@1047x576 (16:9), анаморф, 25 fps, 2700 kbps
Аудио: MPEG Audio, 2 сh, 48 kHz, 192 kbps

MediaInfo

General
ID : 1 (0x1)
Complete name : G:\Белоснежка. (2009)_DVB by SLuMeP.ts
Format : MPEG-TS
File size : 1.26 GiB
Duration : 59mn 4s
Overall bit rate mode : Variable
Overall bit rate : 3 057 Kbps
Video
ID : 1101 (0x44D)
Menu ID : 1100 (0x44C)
Format : AVC
Format/Info : Advanced Video Codec
Format profile : Main@L3
Format settings, CABAC : Yes
Format settings, ReFrames : 4 frames
Format settings, GOP : M=4, N=28
Codec ID : 27
Duration : 59mn 3s
Bit rate : 2 712 Kbps
Width : 720 pixels
Height : 576 pixels
Display aspect ratio : 16:9
Frame rate : 25.000 fps
Standard : Component
Color space : YUV
Chroma subsampling : 4:2:0
Bit depth : 8 bits
Scan type : Interlaced
Scan type, store method : Separated fields
Scan order : Top Field First
Bits/(Pixel*Frame) : 0.262
Stream size : 1.12 GiB (89%)
Color range : Limited
Color primaries : BT.601 PAL
Transfer characteristics : BT.470 System B, BT.470 System G
Matrix coefficients : BT.601
Audio
ID : 1102 (0x44E)
Menu ID : 1100 (0x44C)
Format : MPEG Audio
Format version : Version 1
Format profile : Layer 2
Codec ID : 3
Duration : 59mn 3s
Bit rate mode : Constant
Bit rate : 192 Kbps
Channel(s) : 2 channels
Sampling rate : 48.0 KHz
Compression mode : Lossy
Stream size : 81.1 MiB (6%)
Language : Russian
Text
ID : 1103 (0x44F)-100
Menu ID : 1100 (0x44C)
Format : Teletext
Language : Russian

Скриншоты


[Профиль] [ЛС]

Создавать темы 12-Июн-2016 07:56 (спустя 3 месяца 26 дней)

Топик был перенесен из форума Фильмы 2011 года в форум Фильмы 2009 года
Russian Mafia
 
Кто просматривает тему:

Форум Тема Автор Размер
Фильмы (HD DVD, Blu-ray и BDRemux) Белоснежка и охотник / Snow White And The Huntsman (2012) BDRemux 1080p | Extended Cut Russian Mafia 34.96 GB
Фильмы (HD Rips | 720p, 1080p) Белоснежка и охотник / Snow White and the Huntsman (2012) BDRip 1080p | Extended Cut Russian Mafia 5.76 GB
Фильмы (HD Rips | 720p, 1080p) Белоснежка и охотник / Snow White And The Huntsman (2012) BDRip 1080p | Extended | D, A Russian Mafia 7.95 GB
Фильмы (HD Rips | 720p, 1080p) Белоснежка и охотник / Snow White and the Huntsman (2012) BDRip 720p | D | Расширенная версия Russian Mafia 4.37 GB
Фильмы 2012 года Белоснежка и охотник / Snow White and the Huntsman (2012) BDRip | Лицензия | Расширенная версия / Extended Cut Russian Mafia 2.18 GB
Фильмы (HD DVD, Blu-ray и BDRemux) Белоснежка и Охотник 2 / The Huntsman Winter's War (2016) BDRemux 1080p от ExKinoRay | D, P | Лицензия Russian Mafia 24.5 GB
Фильмы (HD DVD, Blu-ray и BDRemux) Белоснежка и Охотник 2 / The Huntsman Winter's War (2016) BDRemux 1080p от ExKinoRay | Расширенная версия | Лицензия Russian Mafia 25.67 GB
Фильмы (HD Rips | 720p, 1080p) Белоснежка и Охотник 2 / The Huntsman Winter's War (2016) BDRip 1080p от ExKinoRay | D, P | Лицензия Russian Mafia 12.75 GB
Показать сообщения:    

Текущее время: Сегодня 10:52

Часовой пояс: GMT



Вы не можете начинать темы
Вы не можете отвечать на сообщения
Вы не можете редактировать свои сообщения
Вы не можете удалять свои сообщения
Вы не можете голосовать в опросах
Вы не можете прикреплять файлы к сообщениям
Вы не можете скачивать файлы