Белоснежка и Охотник 2 / The Huntsman Winter's War 2 (2016) BDRip-AVC от ExKinoRay | Расширенная версия | Лицензия

 
Автор Сообщение

Russian Mafia ®

Пол:

Стаж: 1 год 8 месяцев

Сообщений: 4252



Награды: 10 (Подробнее)

Top Releaser 4 (Количество: 1) Top Releaser 5 (Количество: 1) Mega Seeder 4 (Количество: 1)
Торрент-статистика

Создавать темы 12-Авг-2016 14:37

[Цитировать]

Информация о фильме
Название: Белоснежка и Охотник 2
Оригинальное название: The Huntsman Winter's War
Год выпуска: 2016
Жанр: Фэнтези, боевик, драма, приключения
Выпущено: США, Roth Films, Universal Pictures
Режиссер: Седрик Николя-Троян
В ролях: Крис Хемсворт, Шарлиз Терон, Джессика Честейн, Эмили Блант, Ник Фрост, Роб Брайдон, Шеридан Смит, Александра Роуч, Сопе Дирису, Сэм Хэзелдайн, Сэм Клафлин, Софи Куксон, Конрад Кхан, Ниам Уолтер, Нана Аджйеман-Бедьяко, Амелия Крауч, Фред Татаскьор, Ралф Айнесон, Линн Уилмот, Колин Морган
О фильме: Злая колдунья Равенна уничтожена. На трон королевства Табор восходит Белоснежка, неся в сказочный мир добро, радость и низкие налоги. Но сестра Равенны, ледяная королева Фрейя, готовит рабочий план по досрочному наступлению нового ледникового периода с помощью волшебного зеркала и своей армии специально обученных воинов, не ведающих человеческих слабостей. Ей противостоят бесстрашный охотник Эрик и его возлюбленная Сара.

Файл
Качество: WEB-DLRip (AVC)
Видео: MPEG-4 AVC, 2259 Кбит/с, 1024x428, 23.976 кадр/с
Аудио: Русский, английский (AC3, 6 ch, 448 Кбит/с)
Размер: 2.65 ГБ
Продолжительность: 02:00:10
Перевод: Дублированный
Субтитры: Русские, английские
Сохранены оригинальные чаптеры.
Озвучивание - Дублированное (Лицензия)

x264

x264 [info]: frame I:1514 Avg QP:15.05 size: 81363
x264 [info]: frame P:39196 Avg QP:18.06 size: 24242
x264 [info]: frame B:132164 Avg QP:19.91 size: 7281
x264 [info]: consecutive B-frames: 2.8% 3.3% 8.6% 19.7% 22.4% 33.6% 4.6% 1.7% 1.2% 1.0% 1.1%
x264 [info]: mb I I16..4: 12.1% 62.0% 26.0%
x264 [info]: mb P I16..4: 0.5% 11.2% 1.4% P16..4: 29.1% 34.3% 15.0% 3.1% 0.4% skip: 4.8%
x264 [info]: mb B I16..4: 0.0% 0.9% 0.1% B16..8: 33.7% 22.2% 4.0% direct: 5.9% skip:33.2% L0:42.8% L1:43.2% BI:14.0%
x264 [info]: 8x8 transform intra:80.4% inter:51.5%
x264 [info]: direct mvs spatial:98.7% temporal:1.3%
x264 [info]: coded y,uvDC,uvAC intra: 94.0% 84.5% 63.2% inter: 28.0% 18.2% 8.8%
x264 [info]: i16 v,h,dc,p: 33% 8% 19% 41%
x264 [info]: i8 v,h,dc,ddl,ddr,vr,hd,vl,hu: 8% 7% 8% 10% 14% 14% 13% 13% 14%
x264 [info]: i4 v,h,dc,ddl,ddr,vr,hd,vl,hu: 10% 7% 6% 9% 15% 15% 14% 12% 13%
x264 [info]: i8c dc,h,v,p: 46% 22% 17% 16%
x264 [info]: Weighted P-Frames: Y:5.9% UV:3.1%
x264 [info]: ref P L0: 50.6% 10.8% 14.5% 6.6% 4.8% 3.6% 2.9% 1.7% 1.4% 1.2% 1.0% 0.8% 0.1% 0.0%
x264 [info]: ref B L0: 71.1% 14.0% 5.7% 2.9% 2.0% 1.5% 1.2% 0.7% 0.5% 0.3% 0.1%
x264 [info]: ref B L1: 92.7% 7.3%
x264 [info]: kb/s:2258.66

Инфо-файл

Общее
Уникальный идентификатор : 203870072195093402579903453116346057672 (0x995FF29B304F560D9B615F23FA72C3C8)
Полное имя : D:ЗагрузкиThe.Huntsman.Winters.War.Extended.2016.x264.BDRip.(AVC).ExKinoRay.mkv
Формат : Matroska
Версия формата : Version 2
Размер файла : 2,65 Гбайт
Продолжительность : 2 ч. 0 м.
Общий поток : 3157 Кбит/сек
Название фильма : Белоснежка и Охотник II.2016.Rip by: ollan
Дата кодирования : UTC 2016-08-12 14:06:01
Программа кодирования : mkvmerge v5.6.0 ('Kenya Kane') built on May 27 2012 16:44:04
Библиотека кодирования : libebml v1.2.3 + libmatroska v1.3.0
Обложка : Yes
Attachments : Cover - The.Huntsman.Winter's.War..png
Видео
Идентификатор : 1
Формат : AVC
Формат/Информация : Advanced Video Codec
Профиль формата : High@L4.1
Параметр CABAC формата : Да
Параметр ReFrames формата : 12 кадров
Идентификатор кодека : V_MPEG4/ISO/AVC
Продолжительность : 2 ч. 0 м.
Битрейт : 2259 Кбит/сек
Ширина : 1024 пикселя
Высота : 428 пикселей
Соотношение сторон : 2,40:1
Режим частоты кадров : Постоянный
Частота кадров : 23,976 (24000/1001) кадра/сек
Цветовое пространство : YUV
Субдискретизация насыщенности : 4:2:0
Битовая глубина : 8 бит
Тип развёртки : Прогрессивная
Бит/(Пиксели*Кадры) : 0.215
Размер потока : 1,85 Гбайт (70%)
Библиотека кодирования : x264 core 146 r2538 121396c
Настройки программы : cabac=1 / ref=12 / deblock=1:-3:-3 / analyse=0x3:0x133 / me=umh / subme=11 / psy=1 / psy_rd=1.02:0.10 / mixed_ref=1 / me_range=48 / chroma_me=1 / trellis=2 / 8x8dct=1 / cqm=0 / deadzone=21,11 / fast_pskip=0 / chroma_qp_offset=-3 / threads=12 / lookahead_threads=3 / sliced_threads=0 / nr=0 / decimate=0 / interlaced=0 / bluray_compat=0 / constrained_intra=0 / bframes=10 / b_pyramid=2 / b_adapt=2 / b_bias=0 / direct=3 / weightb=1 / open_gop=0 / weightp=2 / keyint=240 / keyint_min=23 / scenecut=40 / intra_refresh=0 / rc_lookahead=40 / rc=2pass / mbtree=0 / bitrate=2259 / ratetol=1.0 / qcomp=0.60 / qpmin=0 / qpmax=69 / qpstep=4 / cplxblur=20.0 / qblur=0.5 / vbv_maxrate=50000 / vbv_bufsize=62500 / nal_hrd=none / filler=0 / ip_ratio=1.40 / pb_ratio=1.30 / aq=1:1.00
Язык : English
Default : Да
Forced : Нет
Аудио #1
Идентификатор : 2
Формат : AC-3
Формат/Информация : Audio Coding 3
Расширение режима : CM (complete main)
Параметр Endianness формата : Big
Идентификатор кодека : A_AC3
Продолжительность : 2 ч. 0 м.
Вид битрейта : Постоянный
Битрейт : 448 Кбит/сек
Каналы : 6 каналов
Расположение каналов : Front: L C R, Side: L R, LFE
Частота : 48,0 КГц
Частота кадров : 31,250 кадров/сек (1536 spf)
Метод сжатия : С потерями
Размер потока : 385 Мбайт (14%)
Заголовок : Дублированный (Лицензия)
Язык : Russian
Default : Да
Forced : Нет
Аудио #2
Идентификатор : 3
Формат : AC-3
Формат/Информация : Audio Coding 3
Расширение режима : CM (complete main)
Параметр Endianness формата : Big
Идентификатор кодека : A_AC3
Продолжительность : 2 ч. 0 м.
Вид битрейта : Постоянный
Битрейт : 448 Кбит/сек
Каналы : 6 каналов
Расположение каналов : Front: L C R, Side: L R, LFE
Частота : 48,0 КГц
Частота кадров : 31,250 кадров/сек (1536 spf)
Метод сжатия : С потерями
Размер потока : 385 Мбайт (14%)
Язык : English
Default : Нет
Forced : Нет
Текст #1
Идентификатор : 4
Формат : UTF-8
Идентификатор кодека : S_TEXT/UTF8
Идентификатор кодека/Информация : UTF-8 Plain Text
Заголовок : Full
Язык : Russian
Default : Нет
Forced : Нет
Текст #2
Идентификатор : 5
Формат : UTF-8
Идентификатор кодека : S_TEXT/UTF8
Идентификатор кодека/Информация : UTF-8 Plain Text
Заголовок : Full
Язык : English
Default : Нет
Forced : Нет
Меню
00:00:00.000 : en:00:00:00.000
00:06:26.428 : en:00:06:26.428
00:09:26.858 : en:00:09:26.858
00:15:03.194 : en:00:15:03.194
00:21:33.501 : en:00:21:33.501
00:30:17.858 : en:00:30:17.858
00:36:08.166 : en:00:36:08.166
00:40:55.661 : en:00:40:55.661
00:46:56.439 : en:00:46:56.439
00:52:05.748 : en:00:52:05.748
00:59:35.530 : en:00:59:35.530
01:04:23.943 : en:01:04:23.943
01:11:16.689 : en:01:11:16.689
01:15:19.223 : en:01:15:19.223
01:22:42.833 : en:01:22:42.833
01:28:15.206 : en:01:28:15.206
01:33:58.007 : en:01:33:58.007
01:39:21.956 : en:01:39:21.956
01:48:13.904 : en:01:48:13.904
01:50:19.571 : en:01:50:19.571

Скриншоты



Релиз от: Rip by:
[Профиль] [ЛС]
Кто просматривает тему:

Форум Тема Автор Размер
Фильмы 2009 года Белоснежка / Schneewittchen (Томас Френднер / Thomas Freundner) [2009, Германия, детский, семейный, фэнтези, DVB-AVC] MVO (ТВЦ) TorrentFilm 1.26 GB
Фильмы (HD DVD, Blu-ray и BDRemux) Белоснежка и охотник / Snow White And The Huntsman (2012) BDRemux 1080p | Extended Cut Russian Mafia 34.96 GB
Фильмы (HD Rips | 720p, 1080p) Белоснежка и охотник / Snow White and the Huntsman (2012) BDRip 1080p | Extended Cut Russian Mafia 5.76 GB
Фильмы (HD Rips | 720p, 1080p) Белоснежка и охотник / Snow White And The Huntsman (2012) BDRip 1080p | Extended | D, A Russian Mafia 7.95 GB
Фильмы (HD Rips | 720p, 1080p) Белоснежка и охотник / Snow White and the Huntsman (2012) BDRip 720p | D | Расширенная версия Russian Mafia 4.37 GB
Фильмы 2012 года Белоснежка и охотник / Snow White and the Huntsman (2012) BDRip | Лицензия | Расширенная версия / Extended Cut Russian Mafia 2.18 GB
Фильмы (HD DVD, Blu-ray и BDRemux) Белоснежка и Охотник 2 / The Huntsman Winter's War (2016) BDRemux 1080p от ExKinoRay | D, P | Лицензия Russian Mafia 24.5 GB
Фильмы (HD DVD, Blu-ray и BDRemux) Белоснежка и Охотник 2 / The Huntsman Winter's War (2016) BDRemux 1080p от ExKinoRay | Расширенная версия | Лицензия Russian Mafia 25.67 GB
Показать сообщения:    

Текущее время: Сегодня 08:46

Часовой пояс: GMT



Вы не можете начинать темы
Вы не можете отвечать на сообщения
Вы не можете редактировать свои сообщения
Вы не можете удалять свои сообщения
Вы не можете голосовать в опросах
Вы не можете прикреплять файлы к сообщениям
Вы не можете скачивать файлы