Белоснежка и Охотник 2 / The Huntsman Winter's War 2 (2016) BDRip-AVC от ExKinoRay | Расширенная версия | Лицензия

 
Автор Сообщение

Russian Mafia ®

Пол:

Стаж: 1 год 8 месяцев

Сообщений: 4256



Награды: 10 (Подробнее)

Mega Seeder 1 (Количество: 1) За внесенный вклад в развитие сайта (Количество: 1) Mega Seeder 5 (Количество: 1)
Торрент-статистика

Создавать темы 11-Авг-2016 07:02

[Цитировать]

Информация о фильме
Название: Белоснежка и Охотник 2
Оригинальное название: The Huntsman Winter's War
Год выпуска: 2016
Жанр: Фэнтези, боевик, драма, приключения
Выпущено: США, Roth Films, Universal Pictures
Режиссер: Седрик Николя-Троян
В ролях: Крис Хемсворт, Шарлиз Терон, Джессика Честейн, Эмили Блант, Ник Фрост, Роб Брайдон, Шеридан Смит, Александра Роуч, Сопе Дирису, Сэм Хэзелдайн, Сэм Клафлин, Софи Куксон, Конрад Кхан, Ниам Уолтер, Нана Аджйеман-Бедьяко, Амелия Крауч, Фред Татаскьор, Ралф Айнесон, Линн Уилмот, Колин Морган
О фильме: Злая колдунья Равенна уничтожена. На трон королевства Табор восходит Белоснежка, неся в сказочный мир добро, радость и низкие налоги. Но сестра Равенны, ледяная королева Фрейя, готовит рабочий план по досрочному наступлению нового ледникового периода с помощью волшебного зеркала и своей армии специально обученных воинов, не ведающих человеческих слабостей. Ей противостоят бесстрашный охотник Эрик и его возлюбленная Сара.

Файл
Качество: WEB-DLRip (AVC)
Видео: MPEG-4 AVC, 1991 Кбит/с, 1024x428, 23.976 кадр/с
Аудио: Русский, английский (AC3, 6 ch, 448 Кбит/с)
Размер: 2.43 ГБ
Продолжительность: 02:00:10
Перевод: Дублированный
Субтитры: Русские, английские
Сохранены оригинальные чаптеры.
Озвучивание - Дублированное (Лицензия)

x264

x264 [info]: frame I:1518 Avg QP:15.33 size: 75012
x264 [info]: frame P:39333 Avg QP:18.59 size: 21305
x264 [info]: frame B:132027 Avg QP:20.35 size: 6382
x264 [info]: consecutive B-frames: 3.1% 3.3% 8.4% 19.1% 22.2% 32.4% 6.6% 1.7% 1.2% 0.9% 1.1%
x264 [info]: mb I I16..4: 8.4% 69.8% 21.8%
x264 [info]: mb P I16..4: 0.5% 10.0% 1.3% P16..4: 31.0% 34.6% 14.0% 2.5% 0.3% skip: 5.7%
x264 [info]: mb B I16..4: 0.0% 0.8% 0.1% B16..8: 33.5% 21.1% 3.6% direct: 5.2% skip:35.7% L0:42.9% L1:44.0% BI:13.1%
x264 [info]: 8x8 transform intra:81.2% inter:54.0%
x264 [info]: direct mvs spatial:97.1% temporal:2.9%
x264 [info]: coded y,uvDC,uvAC intra: 92.5% 82.2% 58.5% inter: 25.1% 16.4% 7.6%
x264 [info]: i16 v,h,dc,p: 37% 9% 14% 41%
x264 [info]: i8 v,h,dc,ddl,ddr,vr,hd,vl,hu: 8% 7% 7% 10% 15% 14% 13% 13% 14%
x264 [info]: i4 v,h,dc,ddl,ddr,vr,hd,vl,hu: 10% 6% 6% 9% 16% 15% 14% 12% 13%
x264 [info]: i8c dc,h,v,p: 44% 23% 17% 16%
x264 [info]: Weighted P-Frames: Y:5.8% UV:3.0%
x264 [info]: ref P L0: 48.2% 12.7% 15.8% 5.6% 4.7% 3.2% 2.9% 1.6% 1.5% 1.2% 1.2% 1.1% 0.3% 0.0%
x264 [info]: ref B L0: 71.8% 11.6% 6.1% 2.8% 2.3% 1.7% 1.5% 0.9% 0.8% 0.4% 0.2%
x264 [info]: ref B L1: 92.8% 7.2%
x264 [info]: kb/s:1990.90

Инфо-файл

Общее
Уникальный идентификатор : 196030161208572931750424526117539594239 (0x937A0926BEF01F208240995CB4AABFFF)
Полное имя : D:ЗагрузкиThe.Huntsman.Winters.War.Extended.2016.x264.BDRip.(AVC).ExKinoRay.mkv
Формат : Matroska
Версия формата : Version 2
Размер файла : 2,43 Гбайт
Продолжительность : 2 ч. 0 м.
Общий поток : 2889 Кбит/сек
Название фильма : Белоснежка и Охотник II.2016.Rip by: ollan
Дата кодирования : UTC 2016-08-11 06:38:16
Программа кодирования : mkvmerge v5.6.0 ('Kenya Kane') built on May 27 2012 16:44:04
Библиотека кодирования : libebml v1.2.3 + libmatroska v1.3.0
Обложка : Yes
Attachments : Cover - The.Huntsman.Winter's.War..png
Видео
Идентификатор : 1
Формат : AVC
Формат/Информация : Advanced Video Codec
Профиль формата : High@L4.1
Параметр CABAC формата : Да
Параметр ReFrames формата : 12 кадров
Идентификатор кодека : V_MPEG4/ISO/AVC
Продолжительность : 2 ч. 0 м.
Битрейт : 1991 Кбит/сек
Ширина : 1024 пикселя
Высота : 428 пикселей
Соотношение сторон : 2,40:1
Режим частоты кадров : Постоянный
Частота кадров : 23,976 (24000/1001) кадра/сек
Цветовое пространство : YUV
Субдискретизация насыщенности : 4:2:0
Битовая глубина : 8 бит
Тип развёртки : Прогрессивная
Бит/(Пиксели*Кадры) : 0.189
Размер потока : 1,63 Гбайт (67%)
Библиотека кодирования : x264 core 146 r2538 121396c
Настройки программы : cabac=1 / ref=12 / deblock=1:-3:-3 / analyse=0x3:0x133 / me=umh / subme=11 / psy=1 / psy_rd=1.00:0.07 / mixed_ref=1 / me_range=48 / chroma_me=1 / trellis=2 / 8x8dct=1 / cqm=0 / deadzone=21,11 / fast_pskip=0 / chroma_qp_offset=-3 / threads=12 / lookahead_threads=3 / sliced_threads=0 / nr=0 / decimate=0 / interlaced=0 / bluray_compat=0 / constrained_intra=0 / bframes=10 / b_pyramid=2 / b_adapt=2 / b_bias=0 / direct=3 / weightb=1 / open_gop=0 / weightp=2 / keyint=240 / keyint_min=23 / scenecut=40 / intra_refresh=0 / rc_lookahead=40 / rc=2pass / mbtree=0 / bitrate=1991 / ratetol=1.0 / qcomp=0.60 / qpmin=0 / qpmax=69 / qpstep=4 / cplxblur=20.0 / qblur=0.5 / vbv_maxrate=50000 / vbv_bufsize=62500 / nal_hrd=none / filler=0 / ip_ratio=1.40 / pb_ratio=1.30 / aq=1:1.00
Язык : English
Default : Да
Forced : Нет
Аудио #1
Идентификатор : 2
Формат : AC-3
Формат/Информация : Audio Coding 3
Расширение режима : CM (complete main)
Параметр Endianness формата : Big
Идентификатор кодека : A_AC3
Продолжительность : 2 ч. 0 м.
Вид битрейта : Постоянный
Битрейт : 448 Кбит/сек
Каналы : 6 каналов
Расположение каналов : Front: L C R, Side: L R, LFE
Частота : 48,0 КГц
Частота кадров : 31,250 кадров/сек (1536 spf)
Метод сжатия : С потерями
Размер потока : 385 Мбайт (16%)
Заголовок : Дублированный (Лицензия)
Язык : Russian
Default : Да
Forced : Нет
Аудио #2
Идентификатор : 3
Формат : AC-3
Формат/Информация : Audio Coding 3
Расширение режима : CM (complete main)
Параметр Endianness формата : Big
Идентификатор кодека : A_AC3
Продолжительность : 2 ч. 0 м.
Вид битрейта : Постоянный
Битрейт : 448 Кбит/сек
Каналы : 6 каналов
Расположение каналов : Front: L C R, Side: L R, LFE
Частота : 48,0 КГц
Частота кадров : 31,250 кадров/сек (1536 spf)
Метод сжатия : С потерями
Размер потока : 385 Мбайт (16%)
Язык : English
Default : Нет
Forced : Нет
Текст #1
Идентификатор : 4
Формат : UTF-8
Идентификатор кодека : S_TEXT/UTF8
Идентификатор кодека/Информация : UTF-8 Plain Text
Заголовок : Full
Язык : Russian
Default : Нет
Forced : Нет
Текст #2
Идентификатор : 5
Формат : UTF-8
Идентификатор кодека : S_TEXT/UTF8
Идентификатор кодека/Информация : UTF-8 Plain Text
Заголовок : Full
Язык : English
Default : Нет
Forced : Нет
Меню
00:00:00.000 : en:00:00:00.000
00:06:26.428 : en:00:06:26.428
00:09:26.858 : en:00:09:26.858
00:15:03.194 : en:00:15:03.194
00:21:33.501 : en:00:21:33.501
00:30:17.858 : en:00:30:17.858
00:36:08.166 : en:00:36:08.166
00:40:55.661 : en:00:40:55.661
00:46:56.439 : en:00:46:56.439
00:52:05.748 : en:00:52:05.748
00:59:35.530 : en:00:59:35.530
01:04:23.943 : en:01:04:23.943
01:11:16.689 : en:01:11:16.689
01:15:19.223 : en:01:15:19.223
01:22:42.833 : en:01:22:42.833
01:28:15.206 : en:01:28:15.206
01:33:58.007 : en:01:33:58.007
01:39:21.956 : en:01:39:21.956
01:48:13.904 : en:01:48:13.904
01:50:19.571 : en:01:50:19.571

Скриншоты



[Профиль] [ЛС]
Кто просматривает тему:

Форум Тема Автор Размер
Фильмы 2009 года Белоснежка / Schneewittchen (Томас Френднер / Thomas Freundner) [2009, Германия, детский, семейный, фэнтези, DVB-AVC] MVO (ТВЦ) TorrentFilm 1.26 GB
Фильмы (HD DVD, Blu-ray и BDRemux) Белоснежка и охотник / Snow White And The Huntsman (2012) BDRemux 1080p | Extended Cut Russian Mafia 34.96 GB
Фильмы (HD Rips | 720p, 1080p) Белоснежка и охотник / Snow White and the Huntsman (2012) BDRip 1080p | Extended Cut Russian Mafia 5.76 GB
Фильмы (HD Rips | 720p, 1080p) Белоснежка и охотник / Snow White And The Huntsman (2012) BDRip 1080p | Extended | D, A Russian Mafia 7.95 GB
Фильмы (HD Rips | 720p, 1080p) Белоснежка и охотник / Snow White and the Huntsman (2012) BDRip 720p | D | Расширенная версия Russian Mafia 4.37 GB
Фильмы 2012 года Белоснежка и охотник / Snow White and the Huntsman (2012) BDRip | Лицензия | Расширенная версия / Extended Cut Russian Mafia 2.18 GB
Фильмы (HD DVD, Blu-ray и BDRemux) Белоснежка и Охотник 2 / The Huntsman Winter's War (2016) BDRemux 1080p от ExKinoRay | D, P | Лицензия Russian Mafia 24.5 GB
Фильмы (HD DVD, Blu-ray и BDRemux) Белоснежка и Охотник 2 / The Huntsman Winter's War (2016) BDRemux 1080p от ExKinoRay | Расширенная версия | Лицензия Russian Mafia 25.67 GB
Показать сообщения:    

Текущее время: Сегодня 18:39

Часовой пояс: GMT



Вы не можете начинать темы
Вы не можете отвечать на сообщения
Вы не можете редактировать свои сообщения
Вы не можете удалять свои сообщения
Вы не можете голосовать в опросах
Вы не можете прикреплять файлы к сообщениям
Вы не можете скачивать файлы