Белоснежка и Охотник 2 / The Huntsman Winter's War (2016) BDRip 720p от ExKinoRay | D, P | Лицензия

 
Автор Сообщение

Russian Mafia ®

Пол:

Стаж: 1 год 8 месяцев

Сообщений: 4257



Награды: 10 (Подробнее)

Mega Seeder 2 (Количество: 1) Top Releaser 4 (Количество: 1) Top Releaser 5 (Количество: 1)
Торрент-статистика

Создавать темы 08-Авг-2016 04:13

[Цитировать]

Информация о фильме
Название: Белоснежка и Охотник 2
Оригинальное название: The Huntsman Winter's War
Год выхода: 2016
Жанр: Фэнтези, боевик, драма, приключения
Режиссер: Седрик Николя-Троян
В ролях: Крис Хемсворт, Шарлиз Терон, Джессика Честейн, Эмили Блант, Ник Фрост, Роб Брайдон, Шеридан Смит, Александра Роуч, Сопе Дирису, Сэм Хэзелдайн, Сэм Клафлин, Софи Куксон, Конрад Кхан, Ниам Уолтер, Нана Аджйеман-Бедьяко, Амелия Крауч, Фред Татаскьор, Ралф Айнесон, Линн Уилмот, Колин Морган
О фильме:
Злая колдунья Равенна уничтожена. На трон королевства Табор восходит Белоснежка, неся в сказочный мир добро, радость и низкие налоги. Но сестра Равенны, ледяная королева Фрейя, готовит рабочий план по досрочному наступлению нового ледникового периода с помощью волшебного зеркала и своей армии специально обученных воинов, не ведающих человеческих слабостей. Ей противостоят бесстрашный охотник Эрик и его возлюбленная Сара.

Страна: США
Студия: Roth Films, Universal Pictures
Продолжительность: 01:53:57
Перевод: Дублированный | Лицензия Blu-Ray EUR
Профессиональный многоголосый (закадровый) | FocusStudio
Файл
Кодек: MPEG-4
Качество: BDRip 720p
Видео: 1280x534, 4422 Kbit/s, 23.976 fps
Звук:
Аудио #01: 48 kHz, AC3, 5.1, 640 Kbps | Дублированный | Лицензия |
Аудио #02: 48 kHz, DTS, 5.1, 768 Kbps | Дублированный | Лицензия |
Аудио #03: 48 kHz, AC3, 2.0, 192 Kbps | Профессиональный многоголосый (закадровый) | FocusStudio |
Аудио #04: 48 kHz, DTS, 5.1, 1510 kbps | Оригинал |
Субтитры: Русские, английские

MI

General
Unique ID : 242441094285015370151959660322025498162 (0xB66474D19B7159D9A818A5062D99E632)
Complete name : G:VideoНовая папка (2)The.Huntsman.Winter's.War.2016.Lic.BDRip.720p.ExKinoRay.mkv
Format : Matroska
Format version : Version 4 / Version 2
File size : 6.00 GiB
Duration : 1h 53mn
Overall bit rate : 7 533 Kbps
Movie name : The.Huntsman.Winter's.War.2016.Lic.BDRip.720p.ExKinoRay
Encoded date : UTC 2016-08-08 02:50:56
Writing application : mkvmerge v8.3.0 ('Over the Horizon') 64bit
Writing library : libebml v1.3.1 + libmatroska v1.4.2
Video
ID : 1
Format : AVC
Format/Info : Advanced Video Codec
Format profile : High@L4.1
Format settings, CABAC : Yes
Format settings, ReFrames : 12 frames
Codec ID : V_MPEG4/ISO/AVC
Duration : 1h 53mn
Bit rate : 4 422 Kbps
Width : 1 280 pixels
Height : 534 pixels
Display aspect ratio : 2.40:1
Frame rate mode : Constant
Frame rate : 23.976 (24000/1001) fps
Color space : YUV
Chroma subsampling : 4:2:0
Bit depth : 8 bits
Scan type : Progressive
Bits/(Pixel*Frame) : 0.270
Stream size : 3.52 GiB (59%)
Writing library : x264 core 148 r2694 3b70645
Encoding settings : cabac=1 / ref=12 / deblock=1:-3:-3 / analyse=0x3:0x113 / me=umh / subme=11 / psy=1 / psy_rd=1.00:0.00 / mixed_ref=1 / me_range=48 / chroma_me=1 / trellis=2 / 8x8dct=1 / cqm=0 / deadzone=21,11 / fast_pskip=0 / chroma_qp_offset=-2 / threads=8 / lookahead_threads=1 / sliced_threads=0 / nr=0 / decimate=1 / interlaced=0 / bluray_compat=0 / constrained_intra=0 / bframes=10 / b_pyramid=2 / b_adapt=1 / b_bias=0 / direct=1 / weightb=1 / open_gop=0 / weightp=2 / keyint=240 / keyint_min=24 / scenecut=40 / intra_refresh=0 / rc_lookahead=60 / rc=2pass / mbtree=1 / bitrate=4422 / ratetol=1.0 / qcomp=0.60 / qpmin=0 / qpmax=69 / qpstep=4 / cplxblur=20.0 / qblur=0.5 / vbv_maxrate=50000 / vbv_bufsize=25000 / nal_hrd=none / filler=0 / ip_ratio=1.40 / aq=1:1.00
Language : English
Default : Yes
Forced : No
Audio #1
ID : 2
Format : AC-3
Format/Info : Audio Coding 3
Mode extension : CM (complete main)
Format settings, Endianness : Big
Codec ID : A_AC3
Duration : 1h 53mn
Bit rate mode : Constant
Bit rate : 640 Kbps
Channel(s) : 6 channels
Channel positions : Front: L C R, Side: L R, LFE
Sampling rate : 48.0 KHz
Frame rate : 31.250 fps (1536 spf)
Compression mode : Lossy
Stream size : 522 MiB (8%)
Title : DUB-AC3 [Blu-Ray EUR]
Language : Russian
Default : Yes
Forced : No
Audio #2
ID : 3
Format : DTS
Format/Info : Digital Theater Systems
Mode : 16
Format settings, Endianness : Big
Codec ID : A_DTS
Duration : 1h 53mn
Bit rate mode : Constant
Bit rate : 768 Kbps
Channel(s) : 6 channels
Channel positions : Front: L C R, Side: L R, LFE
Sampling rate : 48.0 KHz
Frame rate : 93.750 fps (512 spf)
Bit depth : 24 bits
Compression mode : Lossy
Stream size : 626 MiB (10%)
Title : DUB-DTS [Blu-Ray EUR]
Language : Russian
Default : No
Forced : No
Audio #3
ID : 4
Format : AC-3
Format/Info : Audio Coding 3
Mode extension : CM (complete main)
Format settings, Endianness : Big
Codec ID : A_AC3
Duration : 1h 53mn
Bit rate mode : Constant
Bit rate : 192 Kbps
Channel(s) : 2 channels
Channel positions : Front: L R
Sampling rate : 48.0 KHz
Frame rate : 31.250 fps (1536 spf)
Compression mode : Lossy
Delay relative to video : 24ms
Stream size : 156 MiB (3%)
Title : MVO [FocusStudio]
Language : Russian
Default : No
Forced : No
Audio #4
ID : 5
Format : DTS
Format/Info : Digital Theater Systems
Mode : 16
Format settings, Endianness : Big
Codec ID : A_DTS
Duration : 1h 53mn
Bit rate mode : Constant
Bit rate : 1 509 Kbps
Channel(s) : 6 channels
Channel positions : Front: L C R, Side: L R, LFE
Sampling rate : 48.0 KHz
Frame rate : 93.750 fps (512 spf)
Bit depth : 24 bits
Compression mode : Lossy
Stream size : 1.20 GiB (20%)
Title : Original
Language : English
Default : No
Forced : No
Text #1
ID : 6
Format : UTF-8
Codec ID : S_TEXT/UTF8
Codec ID/Info : UTF-8 Plain Text
Duration : 1h 43mn
Bit rate : 62 bps
Count of elements : 978
Stream size : 47.6 KiB (0%)
Title : Full
Language : Russian
Default : No
Forced : No
Text #2
ID : 7
Format : UTF-8
Codec ID : S_TEXT/UTF8
Codec ID/Info : UTF-8 Plain Text
Duration : 1h 43mn
Bit rate : 40 bps
Count of elements : 1255
Stream size : 31.1 KiB (0%)
Title : Full
Language : English
Default : No
Forced : No
Menu
00:00:00.000 : en:
00:06:26.427 : en:
00:09:26.857 : en:
00:15:03.193 : en:
00:21:33.500 : en:
00:26:52.235 : en:
00:32:34.744 : en:
00:36:51.167 : en:
00:42:17.952 : en:
00:47:27.261 : en:
00:54:37.816 : en:
00:59:26.229 : en:
01:06:18.974 : en:
01:10:21.508 : en:
01:17:45.118 : en:
01:23:17.492 : en:
01:28:06.864 : en:
01:33:28.811 : en:
01:42:20.759 : en:
01:44:26.426 : en:

Скриншоты

Релиз от: Автор релиза:
[Профиль] [ЛС]
Кто просматривает тему:

Форум Тема Автор Размер
Фильмы 2009 года Белоснежка / Schneewittchen (Томас Френднер / Thomas Freundner) [2009, Германия, детский, семейный, фэнтези, DVB-AVC] MVO (ТВЦ) TorrentFilm 1.26 GB
Фильмы (HD DVD, Blu-ray и BDRemux) Белоснежка и охотник / Snow White And The Huntsman (2012) BDRemux 1080p | Extended Cut Russian Mafia 34.96 GB
Фильмы (HD Rips | 720p, 1080p) Белоснежка и охотник / Snow White and the Huntsman (2012) BDRip 1080p | Extended Cut Russian Mafia 5.76 GB
Фильмы (HD Rips | 720p, 1080p) Белоснежка и охотник / Snow White And The Huntsman (2012) BDRip 1080p | Extended | D, A Russian Mafia 7.95 GB
Фильмы (HD Rips | 720p, 1080p) Белоснежка и охотник / Snow White and the Huntsman (2012) BDRip 720p | D | Расширенная версия Russian Mafia 4.37 GB
Фильмы 2012 года Белоснежка и охотник / Snow White and the Huntsman (2012) BDRip | Лицензия | Расширенная версия / Extended Cut Russian Mafia 2.18 GB
Фильмы (HD DVD, Blu-ray и BDRemux) Белоснежка и Охотник 2 / The Huntsman Winter's War (2016) BDRemux 1080p от ExKinoRay | D, P | Лицензия Russian Mafia 24.5 GB
Фильмы (HD DVD, Blu-ray и BDRemux) Белоснежка и Охотник 2 / The Huntsman Winter's War (2016) BDRemux 1080p от ExKinoRay | Расширенная версия | Лицензия Russian Mafia 25.67 GB
Показать сообщения:    

Текущее время: Сегодня 09:09

Часовой пояс: GMT



Вы не можете начинать темы
Вы не можете отвечать на сообщения
Вы не можете редактировать свои сообщения
Вы не можете удалять свои сообщения
Вы не можете голосовать в опросах
Вы не можете прикреплять файлы к сообщениям
Вы не можете скачивать файлы