Белоснежка и охотник / Snow White and the Huntsman (2012) BDRip 720p | D | Расширенная версия

 
Автор Сообщение

Russian Mafia ®

Пол:

Стаж: 1 год 8 месяцев

Сообщений: 4257



Награды: 10 (Подробнее)

Top Releaser 5 (Количество: 1) Mega Seeder 1 (Количество: 1) Mega Seeder 4 (Количество: 1)
Торрент-статистика

Создавать темы 15-Сен-2015 08:06

[Цитировать]

Информация о фильме
Название: Белоснежка и охотник
Оригинальное название: Snow White and the Huntsman
Год выхода: 2012
Жанр: фэнтези, драма, приключения
Режиссер: Руперт Сандерс
В ролях: Кристен Стюарт, Крис Хемсворт, Шарлиз Терон, Сэм Клафлин, Сэм Спруэлл, Иэн МакШейн, Боб Хоскинс, Рэй Уинстон, Ник Фрост, Эдди Марсан
Роли дублировали: Наталья Фищук, Иван Жарков, Алёна Ивченко, Даниил Эльдаров, Станислав Стрелков
Описание: Тьма приближается. Она прячется в лесах, спускается с гор, застилает небо. Никто не укроется от магического зеркала Королевы, живущей в неприступном замке, охраняемом бесчисленной армией. Но над Белоснежкой злые чары не властны. И тогда Королева отправляет Охотника, чтобы он принес ей сердце соперницы. Но очарованный Белоснежкой, он встает на ее сторону. Грядет великая битва. Лишь одна будет править.

Страна: США
Продолжительность: 02:11:33
Перевод: Профессиональный (Дублированный) (Лицензия)
Файл
Формат: MKV
Качество: BDRip 720p (Источник: Blu-ray Disc)
Видео: 1280x544 (2.35:1), 23.976 fps, 4309 kbps, 0.258 bit/pixel
Аудио: AC-3, 6 ch, 448 kbps (Дублированный Лицензия)
Субтитры: Русские (Полные)
Скачать: Семпл

Скриншоты

MediaInfo

General
Unique ID : 221418315590166106919646577387391707988 (0xA6939DCDE74D329FA0AB126733846B54)
Complete name : Snow.White.and.the.Huntsman.2012.BDRip.720p.mkv
Format : Matroska
Format version : Version 2
File size : 4.37 GiB
Duration : 2h 11mn
Overall bit rate : 4 754 Kbps
Encoded date : UTC 2014-01-11 11:45:00
Writing application : mkvmerge v5.6.0 ('Kenya Kane') built on May 27 2012 16:44:04
Writing library : libebml v1.2.3 + libmatroska v1.3.0
Video
ID : 1
Format : AVC
Format/Info : Advanced Video Codec
Format profile : High@L4.1
Format settings, CABAC : Yes
Format settings, ReFrames : 8 frames
Codec ID : V_MPEG4/ISO/AVC
Duration : 2h 11mn
Bit rate : 4 309 Kbps
Width : 1 280 pixels
Height : 544 pixels
Display aspect ratio : 2.35:1
Frame rate mode : Constant
Frame rate : 23.976 fps
Color space : YUV
Chroma subsampling : 4:2:0
Bit depth : 8 bits
Scan type : Progressive
Bits/(Pixel*Frame) : 0.258
Stream size : 3.87 GiB (89%)
Title : Белоснежка и охотник / Snow White and the Huntsman (2012) (Расширенная Версия)
Writing library : x264 core 130 r2273 b3065e6
Encoding settings : cabac=1 / ref=8 / deblock=1:-3:-3 / analyse=0x3:0x113 / me=umh / subme=11 / psy=1 / psy_rd=1.00:0.00 / mixed_ref=1 / me_range=32 / chroma_me=1 / trellis=2 / 8x8dct=1 / cqm=0 / deadzone=21,11 / fast_pskip=1 / chroma_qp_offset=-2 / threads=6 / lookahead_threads=1 / sliced_threads=0 / nr=0 / decimate=1 / interlaced=0 / bluray_compat=0 / constrained_intra=0 / bframes=6 / b_pyramid=2 / b_adapt=2 / b_bias=0 / direct=3 / weightb=1 / open_gop=0 / weightp=2 / keyint=240 / keyint_min=23 / scenecut=40 / intra_refresh=0 / rc=2pass / mbtree=0 / bitrate=4309 / ratetol=1.0 / qcomp=0.60 / qpmin=0 / qpmax=69 / qpstep=4 / cplxblur=20.0 / qblur=0.5 / ip_ratio=1.40 / pb_ratio=1.30 / aq=1:1.00
Language : English
Default : Yes
Forced : No
Color primaries : BT.709
Transfer characteristics : BT.709
Matrix coefficients : BT.709
Audio
ID : 2
Format : AC-3
Format/Info : Audio Coding 3
Mode extension : CM (complete main)
Format settings, Endianness : Big
Codec ID : A_AC3
Duration : 2h 11mn
Bit rate mode : Constant
Bit rate : 448 Kbps
Channel count : 6 channels
Channel positions : Front: L C R, Side: L R, LFE
Sampling rate : 48.0 KHz
Bit depth : 16 bits
Compression mode : Lossy
Stream size : 422 MiB (9%)
Title : Дублированный 5.1 (Лицензия)
Language : Russian
Default : Yes
Forced : No
Text
ID : 3
Format : UTF-8
Codec ID : S_TEXT/UTF8
Codec ID/Info : UTF-8 Plain Text
Title : Русские (Полные)
Language : Russian
Default : No
Forced : No
[Профиль] [ЛС]
Кто просматривает тему:

Форум Тема Автор Размер
Фильмы 2009 года Белоснежка / Schneewittchen (Томас Френднер / Thomas Freundner) [2009, Германия, детский, семейный, фэнтези, DVB-AVC] MVO (ТВЦ) TorrentFilm 1.26 GB
Фильмы (HD DVD, Blu-ray и BDRemux) Белоснежка и охотник / Snow White And The Huntsman (2012) BDRemux 1080p | Extended Cut Russian Mafia 34.96 GB
Фильмы (HD Rips | 720p, 1080p) Белоснежка и охотник / Snow White and the Huntsman (2012) BDRip 1080p | Extended Cut Russian Mafia 5.76 GB
Фильмы (HD Rips | 720p, 1080p) Белоснежка и охотник / Snow White And The Huntsman (2012) BDRip 1080p | Extended | D, A Russian Mafia 7.95 GB
Фильмы 2012 года Белоснежка и охотник / Snow White and the Huntsman (2012) BDRip | Лицензия | Расширенная версия / Extended Cut Russian Mafia 2.18 GB
Фильмы (HD DVD, Blu-ray и BDRemux) Белоснежка и Охотник 2 / The Huntsman Winter's War (2016) BDRemux 1080p от ExKinoRay | D, P | Лицензия Russian Mafia 24.5 GB
Фильмы (HD DVD, Blu-ray и BDRemux) Белоснежка и Охотник 2 / The Huntsman Winter's War (2016) BDRemux 1080p от ExKinoRay | Расширенная версия | Лицензия Russian Mafia 25.67 GB
Фильмы (HD Rips | 720p, 1080p) Белоснежка и Охотник 2 / The Huntsman Winter's War (2016) BDRip 1080p от ExKinoRay | D, P | Лицензия Russian Mafia 12.75 GB
Показать сообщения:    

Текущее время: Сегодня 13:01

Часовой пояс: GMT



Вы не можете начинать темы
Вы не можете отвечать на сообщения
Вы не можете редактировать свои сообщения
Вы не можете удалять свои сообщения
Вы не можете голосовать в опросах
Вы не можете прикреплять файлы к сообщениям
Вы не можете скачивать файлы