Белоснежка и охотник / Snow White And The Huntsman (2012) BDRip 1080p | Extended | D, A

 
Автор Сообщение

Russian Mafia ®

Пол:

Стаж: 1 год 8 месяцев

Сообщений: 4257



Награды: 10 (Подробнее)

Mega Seeder 2 (Количество: 1) Mega Seeder 1 (Количество: 1) Mega Seeder 3 (Количество: 1)
Торрент-статистика

Создавать темы 15-Сен-2015 08:05

[Цитировать]

Информация о фильме
Название: Белоснежка и охотник
Оригинальное название: Snow White and the Huntsman
Год выхода: 2012
Жанр: фэнтези, драма, приключения
Режиссер: Руперт Сандерс
В ролях: Кристен Стюарт, Крис Хемсворт, Шарлиз Терон, Сэм Клафлин, Сэм Спруэлл, Иэн МакШейн, Боб Хоскинс, Рэй Уинстон, Ник Фрост
О ФИЛЬМЕ
Тьма приближается. Она прячется в лесах, спускается с гор, застилает небо. Никто не укроется от магического зеркала Королевы, живущей в неприступном замке, охраняемом бесчисленной армией. Но над Белоснежкой злые чары не властны. И тогда Королева отправляет Охотника, чтобы он принес ей сердце соперницы. Но очарованный Белоснежкой, он встает на ее сторону. Грядет великая битва. Лишь одна будет править.

Страна: США
Производство: Roth Films, Universal Pictures
Продолжительность: 02:11:34
Перевод: Профессиональный (дублированный) + Авторский (одноголосый) [В. Горчаков; Ю. Сербин]
Файл
Качество: BDRip 1080p
Формат: MKV
Видео: AVC, 1920x816 (2.35:1) at 23.976 fps, AVC at 7312 kbps avg, 0.195 bit/pixel
Аудио 1: Русский / AC3 / 6ch / 448 kbps | DUB
Аудио 2: Русский / AC3 / 6ch / 448 kbps | В. Горчаков
Аудио 3: Русский / AC3 / 6ch / 448 kbps | Ю. Сербин
Субтитры: Русские
Дополнительно: Сохранены оригинальные чаптеры как на Blu-Ray

Доп. инфо

* Перевод Василия Горчакова доступен благодаря пользователям HDTracker: SavineX, Джосс, kinobbk, Jiraya87, Letyoha3, feldeger, Brown15, Role, Диммон, Xerman13, Dr. Destructo, Schmulke, vadamk, Atzki RuLon, denis_mgn_1987, nimph, MeGUI, эвоки.
* Перевод Юрия Сербина доступен благодаря пользователям форума E180


MI

General
Unique ID : 238167479953108027676518444784408017638 (0xB32D635D47BED6598E7EEDBCAD3B3AE6)
Complete name : H:Snow.White.Huntsman.2012.BD.1080.Hot-Film.mkv
Format : Matroska
Format version : Version 2
File size : 7.95 GiB
Duration : 2h 11mn
Overall bit rate : 8 655 Kbps
Encoded date : UTC 2014-02-11 15:39:42
Writing application : mkvmerge v5.8.0 ('No Sleep / Pillow') built on Sep 2 2012 15:37:04
Writing library : libebml v1.2.3 + libmatroska v1.3.0
Video
ID : 1
Format : AVC
Format/Info : Advanced Video Codec
Format profile : High@L4.1
Format settings, CABAC : Yes
Format settings, ReFrames : 5 frames
Codec ID : V_MPEG4/ISO/AVC
Duration : 2h 11mn
Bit rate : 7 312 Kbps
Width : 1 920 pixels
Height : 816 pixels
Display aspect ratio : 2.35:1
Frame rate mode : Constant
Frame rate : 23.976 fps
Color space : YUV
Chroma subsampling : 4:2:0
Bit depth : 8 bits
Scan type : Progressive
Bits/(Pixel*Frame) : 0.195
Stream size : 6.56 GiB (82%)
Writing library : x264 core 138 r2358 9e941d1
Encoding settings : cabac=1 / ref=5 / deblock=1:-3:-3 / analyse=0x3:0x113 / me=umh / subme=11 / psy=1 / psy_rd=1.00:0.10 / mixed_ref=1 / me_range=32 / chroma_me=1 / trellis=2 / 8x8dct=1 / cqm=0 / deadzone=21,11 / fast_pskip=0 / chroma_qp_offset=-3 / threads=2 / lookahead_threads=1 / sliced_threads=0 / nr=0 / decimate=0 / interlaced=0 / bluray_compat=0 / constrained_intra=0 / bframes=7 / b_pyramid=2 / b_adapt=2 / b_bias=0 / direct=3 / weightb=1 / open_gop=0 / weightp=2 / keyint=240 / keyint_min=23 / scenecut=40 / intra_refresh=0 / rc_lookahead=40 / rc=2pass / mbtree=0 / bitrate=7312 / ratetol=1.0 / qcomp=0.60 / qpmin=0 / qpmax=69 / qpstep=4 / cplxblur=20.0 / qblur=0.5 / vbv_maxrate=50000 / vbv_bufsize=62500 / nal_hrd=none / ip_ratio=1.40 / pb_ratio=1.30 / aq=1:0.80
Language : English
Default : Yes
Forced : No
Audio #1
ID : 2
Format : AC-3
Format/Info : Audio Coding 3
Mode extension : CM (complete main)
Format settings, Endianness : Big
Codec ID : A_AC3
Duration : 2h 11mn
Bit rate mode : Constant
Bit rate : 448 Kbps
Channel(s) : 6 channels
Channel positions : Front: L C R, Side: L R, LFE
Sampling rate : 48.0 KHz
Bit depth : 16 bits
Compression mode : Lossy
Stream size : 422 MiB (5%)
Title : DUB
Language : Russian
Default : Yes
Forced : No
Audio #2
ID : 3
Format : AC-3
Format/Info : Audio Coding 3
Mode extension : CM (complete main)
Format settings, Endianness : Big
Codec ID : A_AC3
Duration : 2h 11mn
Bit rate mode : Constant
Bit rate : 448 Kbps
Channel(s) : 6 channels
Channel positions : Front: L C R, Side: L R, LFE
Sampling rate : 48.0 KHz
Bit depth : 16 bits
Compression mode : Lossy
Stream size : 422 MiB (5%)
Title : В.Горчаков
Language : Russian
Default : No
Forced : No
Audio #3
ID : 4
Format : AC-3
Format/Info : Audio Coding 3
Mode extension : CM (complete main)
Format settings, Endianness : Big
Codec ID : A_AC3
Duration : 2h 11mn
Bit rate mode : Constant
Bit rate : 448 Kbps
Channel(s) : 6 channels
Channel positions : Front: L C R, Side: L R, LFE
Sampling rate : 48.0 KHz
Bit depth : 16 bits
Compression mode : Lossy
Stream size : 422 MiB (5%)
Title : Ю.Сербин
Language : Russian
Default : No
Forced : No
Text #1
ID : 5
Format : UTF-8
Codec ID : S_TEXT/UTF8
Codec ID/Info : UTF-8 Plain Text
Title : Forced Voronine
Language : Russian
Default : Yes
Forced : Yes
Text #2
ID : 6
Format : UTF-8
Codec ID : S_TEXT/UTF8
Codec ID/Info : UTF-8 Plain Text
Title : Full
Language : Russian
Default : No
Forced : No
Text #3
ID : 7
Format : UTF-8
Codec ID : S_TEXT/UTF8
Codec ID/Info : UTF-8 Plain Text
Title : Full Voronine
Language : Russian
Default : No
Forced : No
Menu
00:00:00.000 : :Chapter 01
00:05:05.055 : :Chapter 02
00:10:26.793 : :Chapter 03
00:19:48.854 : :Chapter 04
00:27:46.456 : :Chapter 05
00:32:40.458 : :Chapter 06
00:38:04.490 : :Chapter 07
00:44:02.098 : :Chapter 08
00:51:08.649 : :Chapter 09
00:58:17.869 : :Chapter 10
01:02:08.558 : :Chapter 11
01:08:57.967 : :Chapter 12
01:13:36.537 : :Chapter 13
01:16:59.073 : :Chapter 14
01:26:57.003 : :Chapter 15
01:36:30.993 : :Chapter 16
01:43:37.795 : :Chapter 17
01:49:51.460 : :Chapter 18
01:53:44.734 : :Chapter 19
02:01:50.094 : :Chapter 20
[Профиль] [ЛС]
Кто просматривает тему:

Форум Тема Автор Размер
Фильмы 2009 года Белоснежка / Schneewittchen (Томас Френднер / Thomas Freundner) [2009, Германия, детский, семейный, фэнтези, DVB-AVC] MVO (ТВЦ) TorrentFilm 1.26 GB
Фильмы (HD DVD, Blu-ray и BDRemux) Белоснежка и охотник / Snow White And The Huntsman (2012) BDRemux 1080p | Extended Cut Russian Mafia 34.96 GB
Фильмы (HD Rips | 720p, 1080p) Белоснежка и охотник / Snow White and the Huntsman (2012) BDRip 1080p | Extended Cut Russian Mafia 5.76 GB
Фильмы (HD Rips | 720p, 1080p) Белоснежка и охотник / Snow White and the Huntsman (2012) BDRip 720p | D | Расширенная версия Russian Mafia 4.37 GB
Фильмы 2012 года Белоснежка и охотник / Snow White and the Huntsman (2012) BDRip | Лицензия | Расширенная версия / Extended Cut Russian Mafia 2.18 GB
Фильмы (HD DVD, Blu-ray и BDRemux) Белоснежка и Охотник 2 / The Huntsman Winter's War (2016) BDRemux 1080p от ExKinoRay | D, P | Лицензия Russian Mafia 24.5 GB
Фильмы (HD DVD, Blu-ray и BDRemux) Белоснежка и Охотник 2 / The Huntsman Winter's War (2016) BDRemux 1080p от ExKinoRay | Расширенная версия | Лицензия Russian Mafia 25.67 GB
Фильмы (HD Rips | 720p, 1080p) Белоснежка и Охотник 2 / The Huntsman Winter's War (2016) BDRip 1080p от ExKinoRay | D, P | Лицензия Russian Mafia 12.75 GB
Показать сообщения:    

Текущее время: Сегодня 10:13

Часовой пояс: GMT



Вы не можете начинать темы
Вы не можете отвечать на сообщения
Вы не можете редактировать свои сообщения
Вы не можете удалять свои сообщения
Вы не можете голосовать в опросах
Вы не можете прикреплять файлы к сообщениям
Вы не можете скачивать файлы