Белорусские поговорки 2 (Михаил Тумеля) [2011, Мультфильм, рисованный, короткометражный, детский, экранизация, фольклор, WEBRip]

 
Автор Сообщение

TorrentFilm ®

Пол:

Стаж: 2 года

Сообщений: 7741



Награды: Нет

Торрент-статистика

Создавать темы 02-Янв-2016 00:09

[Цитировать]

Белорусские поговорки 2
Страна: Беларусь, Беларусьфильм
Жанр: Мультфильм, рисованный, короткометражный, детский, экранизация, фольклор
Продолжительность: 00:06:46
Год выпуска: 2011
Русские субтитры: нет
Режиссёр: Михаил Тумеля
Роли озвучивали: Михаил Тумеля, Александр Кашперав, Игорь Сидарчык, Алёна Дубровская, Лидия Мардачова
Описание: Продолжение серии фильмов на темы белорусских народных пословиц и поговорок.
Доп. информация: Особую благодарность выражаю delfy1 за предоставленный материал. Спасибо!
Качество: WEBRip
Формат: AVI
Видео: XviD;640x480 (4:3);1201 Kbps;25 fps;0,156 bpp
Аудио: MP3;128 Kbps;CBR;2 ch
Субтитры: отсутствуют

Подробные технические данные

ОбщееПолное имя : G:\Download\Белорусские поговорки 2.aviФормат : AVIФормат/Информация : Audio Video InterleaveРазмер файла : 65,1 МбайтПродолжительность : 6 м. 46 с.Общий поток : 1342 Кбит/секПрограмма кодирования : MEncoder SVN-r30881(20100311-gcc4.3.3)Библиотека кодирования : MPlayer
ВидеоИдентификатор : 0Формат : MPEG-4 VisualПрофиль формата : Advanced Simple@L5Параметр BVOP формата : 2Параметр QPel формата : НетПараметр GMC формата : Без точки переходаПараметр матрицы формата : Default (H.263)Идентификатор кодека : XVIDИдентификатор кодека/Подсказка : XviDПродолжительность : 6 м. 46 с.Битрейт : 1201 Кбит/секШирина : 640 пикселейВысота : 480 пикселейСоотношение сторон : 4:3Соотношение сторон в оригинале : 4:3Частота кадров : 25,000 кадров/секЦветовое пространство : YUVСубдискретизация насыщенности : 4:2:0Битовая глубина : 8 битТип развёртки : ПрогрессивнаяМетод сжатия : С потерямиБит/(Пиксели*Кадры) : 0.156Размер потока : 58,3 Мбайт (90%)Библиотека кодирования : XviD 1.2.1 (UTC 2008-12-04)
АудиоИдентификатор : 1Формат : MPEG AudioВерсия формата : Version 1Профиль формата : Layer 3Режим : Joint stereoРасширение режима : MS StereoИдентификатор кодека : 55Идентификатор кодека/Подсказка : MP3Продолжительность : 6 м. 46 с.Вид битрейта : ПостоянныйБитрейт : 128 Кбит/секКаналы : 2 каналаЧастота : 44,1 КГцМетод сжатия : С потерямиЗадержка видео : 40 мс.Размер потока : 6,21 Мбайт (10%)Выравнивание : Соединение по промежуткамПродолжительность промежутка : 26 мс. (0,65 видеокадр)Время предзагрузки промежутка : 522 мс.Библиотека кодирования : LAME3.98

Скриншоты

[Профиль] [ЛС]
Показать сообщения:    

Текущее время: Сегодня 06:16

Часовой пояс: GMT



Вы не можете начинать темы
Вы не можете отвечать на сообщения
Вы не можете редактировать свои сообщения
Вы не можете удалять свои сообщения
Вы не можете голосовать в опросах
Вы не можете прикреплять файлы к сообщениям
Вы не можете скачивать файлы