Белокурая невеста из Лунного Королевства в 3Д / The White Haired Witch of Lunar Kingdom 3D (Чи Люн «Джэйкоб» Чунг / Chi Leung «Jacob» Cheung) [2014, Фэнтэзи, Боевик, Мелодрама, BDrip-AVC] DVO, Half OverUnder / Вертикальная анаморфная стереопара

 
Автор Сообщение

TorrentFilm ®

Пол:

Стаж: 2 года

Сообщений: 7741



Награды: Нет

Торрент-статистика

Создавать темы 19-Дек-2014 02:00

[Цитировать]

Белокурая невеста из Лунного Королевства
The White Haired Witch of Lunar Kingdom

Год выпуска: 2014
Страна: Китай (Bona Film Group, Omnijoi Media Corp.)
Жанр: Фэнтези, Мелодрама, Боевик
Продолжительность: 1:43:47
Перевод: Любительский двухголосый закадровый (Green Tea [Дмитрий Познанский и Ольга Гринтиева; перевод - Виктория Широкова])
Режиссер: Чи Люн «Джэйкоб» Чунг / Chi Leung «Jacob» Cheung-Роли исполняли:

Lian Nishang - Бинбин Фань
Zhuo Yihang - Хуан Сяомин
Jin Duyi - Вэньчжо Чжао

а также Wang Xuebing, Ni Dahong, Tong Yao, Shera Lee
-Описание: В центре событий — мстительница, которая наказывает людей во имя Луны за чинимые ими преступления и несправедливости, история о боевых искусствах, мести, любви, чести и романтике.-Доп.инфо: Русская дорога 5.1 получена заменой центрального канала оригинальной дороги.-Премьера (мир): 16 мая 2014
. .
-Качество: BDRip (by Ash61)
Контейнер: MKV
Формат 3D: Half OverUnder / Вертикальная анаморфная стереопара
Порядок ракурсов: левый ракурс первый
Видео кодек: x264
Аудио кодек: AC3-Видео: AVC / 23,976 fps / 1920х1080p / ~9.4 Mbps
Аудио:
#1 - Русский / AC3 / 48 KHz / 5.1 ch / 640 Kbps (DVO - Green Tea) (сведение в 5.1 - Ash61)
#2 - Китайский (Cantonese) / AC3 / 48 KHz / 5.1 ch / 640 Kbps (Original - BD 3D) (Отдельным файлом)
Субтитры (внешние SRT UTF-8): English Full

MediaInfo

General
Unique ID : 173756681253071570001510096146008803778 (0x82B851CDC8B0EBECB193A89886CA89C2)
Complete name : E:\TheWhiteHairedWitchOfLunarKingdom(2014)3D-halfOU(Ash61)DVO-5.1\TheWhiteHairedWitchOfLunarKingdom(2014)3D-halfOU(Ash61)DVO-5.1.mkv
Format : Matroska
Format version : Version 2
File size : 7.40 GiB
Duration : 1h 43mn
Overall bit rate : 10.2 Mbps
Movie name : Белокурая невеста из Лунного Королевства / The White Haired Witch of Lunar Kingdom (2014) 3D
Encoded date : UTC 2014-11-02 08:57:06
Writing application : mkvmerge v5.8.0 ('No Sleep / Pillow') built on Sep 2 2012 15:37:04
Writing library : libebml v1.2.3 + libmatroska v1.3.0
Video
ID : 1
Format : AVC
Format/Info : Advanced Video Codec
Format profile : High@L4.1
Format settings, CABAC : Yes
Format settings, ReFrames : 4 frames
Codec ID : V_MPEG4/ISO/AVC
Duration : 1h 43mn
Bit rate : 9 361 Kbps
Width : 1 920 pixels
Height : 1 080 pixels
Display aspect ratio : 16:9
Frame rate mode : Constant
Frame rate : 23.976 fps
Color space : YUV
Chroma subsampling : 4:2:0
Bit depth : 8 bits
Scan type : Progressive
Bits/(Pixel*Frame) : 0.188
Stream size : 6.79 GiB (92%)
Title : BDRip by Ash61
Writing library : x264 core 138 r2358 9e941d1
Encoding settings : cabac=1 / ref=4 / deblock=1:-3:-3 / analyse=0x3:0x113 / me=umh / subme=10 / psy=1 / psy_rd=1.00:0.15 / mixed_ref=1 / me_range=32 / chroma_me=1 / trellis=2 / 8x8dct=1 / cqm=0 / deadzone=21,11 / fast_pskip=1 / chroma_qp_offset=-3 / threads=12 / lookahead_threads=2 / sliced_threads=0 / nr=0 / decimate=1 / interlaced=0 / bluray_compat=0 / constrained_intra=0 / bframes=9 / b_pyramid=2 / b_adapt=2 / b_bias=0 / direct=3 / weightb=1 / open_gop=0 / weightp=2 / keyint=250 / keyint_min=23 / scenecut=40 / intra_refresh=0 / rc_lookahead=60 / rc=crf / mbtree=1 / crf=17.0 / qcomp=0.70 / qpmin=0 / qpmax=69 / qpstep=4 / vbv_maxrate=40000 / vbv_bufsize=30000 / crf_max=0.0 / nal_hrd=none / frame-packing=4 / ip_ratio=1.40 / aq=1:0.70
Language : Chinese
Default : Yes
Forced : No
Audio
ID : 2
Format : AC-3
Format/Info : Audio Coding 3
Mode extension : CM (complete main)
Format settings, Endianness : Big
Codec ID : A_AC3
Duration : 1h 43mn
Bit rate mode : Constant
Bit rate : 640 Kbps
Channel(s) : 6 channels
Channel positions : Front: L C R, Side: L R, LFE
Sampling rate : 48.0 KHz
Bit depth : 16 bits
Compression mode : Lossy
Stream size : 475 MiB (6%)
Title : Двухголосый закадровый - GreenTea (сведение в 5.1 - Ash61)
Language : Russian
Default : Yes
Forced : No
Menu
00:00:00.000 : :1
00:06:04.656 : :2
00:10:38.972 : :3
00:14:54.602 : :4
00:19:04.143 : :5
00:23:51.513 : :6
00:28:30.876 : :7
00:33:19.623 : :8
00:39:06.803 : :9
00:44:54.400 : :10
00:53:07.101 : :11
01:00:14.027 : :12
01:06:05.879 : :13
01:12:06.572 : :14
01:17:44.785 : :15
01:24:26.478 : :16
01:28:31.389 : :17
01:32:54.903 : :18
01:36:35.999 : :19
01:39:40.141 : :20

Для оценки 3Д - Анимированные скрины


















[Профиль] [ЛС]
Показать сообщения:    

Текущее время: Сегодня 08:33

Часовой пояс: GMT



Вы не можете начинать темы
Вы не можете отвечать на сообщения
Вы не можете редактировать свои сообщения
Вы не можете удалять свои сообщения
Вы не можете голосовать в опросах
Вы не можете прикреплять файлы к сообщениям
Вы не можете скачивать файлы