Белое солнце пустыни (1969) BDRemux [1080p]

 
Автор Сообщение

sergej644 ®

Пол:

Стаж: 4 года 11 месяцев

Сообщений: 6040

Откуда: Soviet Union



Награды: Нет

Торрент-статистика

Создавать темы 21-Июл-2014 11:43

[Цитировать]

-Белое солнце пустыни (1969) BDRemux- Год выпуска: 1969
Производство: СССР / Ленфильм, Мосфильм
Жанр: Боевик, драма, мелодрама, комедия, приключения, военный
Описание фильма:
Бесконечная пустыня, боец Сухов, прикуривающий с динамитной шашки, нескладный Петруха с вечно заклинивающей трехлинейкой, обаятельный Верещагин, с надоевшей черной икрой и знаменитыми песнями-балладами, ловкий Саид с незабвенным «Стреляли», злодей Абдулла со своей бандой, любознательная Гульчатай, играющая с черепахою…
Режиссер: Владимир Мотыль
Сценарий: Валентин Ежов, Рустам Ибрагимбеков, Марк Захаров
Актеры: Анатолий Кузнецов, Спартак Мишулин, Кахи Кавсадзе, Павел Луспекаев, Раиса Куркина, Татьяна Федотова, Николай Годовиков, Муса Дудаев, Николай Бадьев, Владимир Кадочников
Перевод: Не требуется (Русский язык)
Субтитры: Отсутствуют

Дата мировой премьеры: 30 марта 1970
Дата выхода DVD релиза: 11 января 2011, «Парадиз Медиа»
Дата выхода Blu-Ray релиза: 25 марта 2014, «Lizard Cinema Trade»
Возраст: 16+
Продолжительность: 01:23:31
Качество видео: BDRemux
Видео: MPEG4_AVC/H.264, 1920x1080, ~18758 kbps, 23.976 fps
Аудио 1: DTS-HD MA 5.1, 3578 kbps, 48 kHz [Русский]
Аудио 2: AC3 5.1, 448 kbps, 48 kHz [Русский]

Отчёт MediaInfo

Полное имя                               : D:\Белое.солнце.пустыни.(1969).BDRemux.[1080p].mkv
Формат                                   : Matroska
Версия формата                           : Version 2
Размер файла                             : 13,3 Гбайт
Продолжительность                        : 1 ч. 23 м.
Режим общего битрейта                    : Переменный
Общий поток                              : 22,8 Мбит/сек
Название фильма                          : Белое солнце пустыни (1969) / Lelya_K for NNM-Club
Дата кодирования                         : UTC 2014-03-21 23:17:15
Программа кодирования                    : mkvmerge v5.7.0 ('The Whirlwind') built on Aug  7 2012 14:11:40
Библиотека кодирования                   : libebml v1.2.3 + libmatroska v1.3.0
Attachment                               : Yes
Видео
Идентификатор                            : 1
Формат                                   : AVC
Формат/Информация                        : Advanced Video Codec
Профиль формата                          : [url=mailto:High@L4.1]High@L4.1[/url]
Параметр CABAC формата                   : Да
Параметр ReFrames формата                : 4 кадра
Идентификатор кодека                     : V_MPEG4/ISO/AVC
Продолжительность                        : 1 ч. 23 м.
Вид битрейта                             : Переменный
Битрейт                                  : 20,3 Мбит/сек
Максимальный битрейт                     : 22,0 Мбит/сек
Ширина                                   : 1920 пикселей
Высота                                   : 1080 пикселей
Соотношение сторон                       : 16:9
Режим частоты кадров                     : Постоянный
Частота кадров                           : 23,976 кадра/сек
Стандарт вещания                         : NTSC
Цветовое пространство                    : YUV
Субдискретизация насыщенности            : 4:2:0
Битовая глубина                          : 8 бит
Тип развёртки                            : Прогрессивная
Бит/(Пиксели*Кадры)                      : 0.409
Размер потока                            : 11,9 Гбайт (89%)
Заголовок                                : Белое.солнце.пустыни.(1969).BDRemux.[1080p]
Язык                                     : Russian
Default                                  : Да
Forced                                   : Нет
Основные цвета                           : BT.709
Характеристики трансфера                 : BT.709
Коэффициенты матрицы                     : BT.709
Аудио #1
Идентификатор                            : 2
Формат                                   : DTS
Формат/Информация                        : Digital Theater Systems
Профиль формата                          : MA / Core
Идентификатор кодека                     : A_DTS
Продолжительность                        : 1 ч. 23 м.
Вид битрейта                             : Переменный
Битрейт                                  : 1561 Кбит/сек / 1510 Кбит/сек
Каналы                                   : 6 каналов
Расположение каналов                     : Front: L C R, Side: L R, LFE
Частота                                  : 48,0 КГц
Битовая глубина                          : 24 бит
Метод сжатия                             : Без потерь / Lossy
Заголовок                                : DTS-HD MA 5.1 / 3578 kbps
Язык                                     : Russian
Default                                  : Да
Forced                                   : Нет
Аудио #2
Идентификатор                            : 3
Формат                                   : AC-3
Формат/Информация                        : Audio Coding 3
Расширение режима                        : CM (complete main)
Параметр Endianness формата              : Big
Идентификатор кодека                     : A_AC3
Продолжительность                        : 1 ч. 23 м.
Вид битрейта                             : Постоянный
Битрейт                                  : 448 Кбит/сек
Каналы                                   : 6 каналов
Расположение каналов                     : Front: L C R, Side: L R, LFE
Частота                                  : 48,0 КГц
Битовая глубина                          : 16 бит
Метод сжатия                             : С потерями
Размер потока                            : 268 Мбайт (2%)
Заголовок                                : AC3 5.1 / 448 kbps
Язык                                     : Russian
Default                                  : Нет
Forced                                   : Нет
Меню
00:00:00.000                             : ru:Chapter 1
00:07:01.879                             : ru:Chapter 2
00:15:34.099                             : ru:Chapter 3
00:24:16.705                             : ru:Chapter 4
00:32:32.700                             : ru:Chapter 5
00:41:02.710                             : ru:Chapter 6
00:44:27.539                             : ru:Chapter 7
00:50:30.569                             : ru:Chapter 8
00:55:03.216                             : ru:Chapter 9
01:00:54.609                             : ru:Chapter 10
01:07:45.686                             : ru:Chapter 11
01:15:21.808                             : ru:Chapter 12

Дополнительно

Полная реставрация изображения и звука. Исходные киноматериалы подготовлены Госфильмофондом России. Покадровая цифровая реставрация изображения, ремастеринг звука и авторинг проведены объединением «Крупный план».
Скриншоты:

--
[Профиль] [ЛС]
Кто просматривает тему:

Форум Тема Автор Размер
Сhanson (Шансон)Сергей Трофимов - Чёрное и Белое - 2014, FLAC (tracks+.cue), lossless sergej644 550 MB
Фильмы (HD Rips | 720p, 1080p) Белое солнце пустыни (1969) BDRip 1080p sergej644 5.76 GB
Фильмы (DVD 5/9) Белое солнце пустыни (Владимир Мотыль) [1969, СССР, боевик, драма, мелодрама, комедия, приключения, военный, Blu ray > DVD5 (Custom)] + Sub Rus,Eng + Original Rus(AC3 5.1;AC3 1.0) reversefile 4.32 GB
Фильмы (HD DVD, Blu-ray и BDRemux) Белое солнце пустыни (Владимир Мотыль) [1969, СССР, боевик, драма, мелодрама, комедия, приключения, военный, Blu-ray disc 1080p] reversefile 20.59 GB
Фильмы (DVD 5/9) Белое солнце пустыни (Владимир Мотыль) [1969, СССР, Боевик, Драма, Мелодрама,Комедия, Приключения, DVD9] + Sub Eng, Rus, Fra, Deu, Esp, Ita, Ned, Port, Ara, Sve, Jap, Chi, Hebr / Original Rus /... TorrentFilm 7.36 GB
Фильмы (HD Rips | 720p, 1080p) Белое солнце пустыни (Владимир Мотыль) [1970, СССР, драма, приключения, боевик, BDRip 720p] reversefile 8.08 GB
Кино СССР Белое солнце пустыни (Владимир Мотыль)[1969, Боевик, Драма, Мелодрама, DVDRip] / Реставрация sergej644 1.45 GB
Отечественные мультфильмы Блэк энд уайт / Белое и чёрное / Black & White (Леонид Амальрик, Иван Иванов-Вано) [1932, короткометражный мультфильм, DVDRip] Eng hardsub TorrentFilm 44 MB
Показать сообщения:    

Текущее время: Сегодня 20:40

Часовой пояс: GMT



Вы не можете начинать темы
Вы не можете отвечать на сообщения
Вы не можете редактировать свои сообщения
Вы не можете удалять свои сообщения
Вы не можете голосовать в опросах
Вы не можете прикреплять файлы к сообщениям
Вы не можете скачивать файлы